With watching divx movies using dvd player

I have Funai dvd player and it supports divx files…

So I have question how can I play my divx movies on that player, what do I have to do?

When I just burn them as data dvd using ashampoo burning studio my player won’t play them, it just gives me some error, I tried with several discs so its not problem with discs…

Thanks in advance…:slight_smile:

Funai is a low end, usually OEM, supplier of players.

What is your model number?

Model is:

Funai No. DR-D3835

Please help me guys/girls…:frowning:

What error message do you get?

Get this and post some info on your files.

http://mediainfo.sourceforge.net/en

Like this:

Format : AVI
Format/Info : Audio Video Interleave
File size : 351 MiB
Duration : 40mn 55s
Overall bit rate : 1198 Kbps
Writing application : transcode-1.0.5rc4

Video
Format : MPEG-4 Visual
Format profile : Streaming Video@L1
Format settings, BVOP : Yes
Format settings, QPel : No
Format settings, GMC : No warppoints
Format settings, Matrix : Default
Codec ID : XVID
Codec ID/Hint : XviD
Duration : 40mn 55s
Bit rate : 1054 Kbps
Width : 624 pixels
Height : 352 pixels
Display aspect ratio : 16/9
Frame rate : 23.976 fps
Resolution : 24 bits
Colorimetry : 4:2:0
Scan type : Progressive
Bits/(Pixel*Frame) : 0.200
Stream size : 308 MiB (88%)
Writing library : XviD 1.1.2 (UTC 2006-11-01)

Audio
Format : MPEG Audio
Format version : Version 1
Format profile : Layer 3
Codec ID : 55
Codec ID/Hint : MP3
Duration : 40mn 55s
Bit rate mode : Variable
Bit rate : 131 Kbps
Minimum bit rate : 128 Kbps
Channel(s) : 2 channels
Sampling rate : 48.0 KHz
Resolution : 16 bits
Stream size : 38.4 MiB (11%)
Alignment : Aligned on interleaves
Interleave, duration : 24 ms (0.58 video frame)
Writing library : LAME3.96r
Encoding settings : ABR

Videos are just general scene releases, mainly dvdrips:

Here are some infos:

Video: XviD @ 875 Kbps - 672×368 (WxH) - AR: 1.83:1, FPS: 23.976
Audio: AC3 @ 192 Kbps (Constant) - 2 channels

But can you just tell me what should I do to watch divx movies normally on any dvd player which supports divx, I mean how should I burn movies, using which method?

[quote=Pjerinjo;2214650]I have Funai dvd player and it supports divx files…

So I have question how can I play my divx movies on that player, what do I have to do?

When I just burn them as data dvd using ashampoo burning studio my player won’t play them, it just gives me some error, I tried with several discs so its not problem with discs…

Thanks in advance…:)[/quote]
You first have to activate the DivX components that is within the standalone DVD player :wink: you will need to use the “Device Manager” that is found under “Tools” found on the titlebar of the DivX player, what you will need to do is write down a DivX activation code that is found in the manual that came with the dvd player that supports DivX playback then open the device manager as stated above enter the info required and a activation disc will be burned for you to play in the dvd player :wink:
I use DivX Pro which comes with the DivX Converter which can convert the movies to HD(1080p) :bigsmile: I also use the DivX Author :iagree: very sweet little app :cool:

Pjerinjo
We cannot help with downloaded videos from the “scene” that are ripped and converted from commercial dvds. Those are copyright protected.

If you were making your own divx or xvid videos from dvds that you own, that would be another matter. That is simply changing formats for material that you have purchased.

Please review the rules of the forum regarding copyright protected material.
http://club.cdfreaks.com/f34/announcement-rules-forum-some-tips-guidelines.html