Video_ts file compression using imgburn

vbimport

#1

I have a 6 GB video-TS FILE IM TRYING TO COMPRESS.i TRIED DVDSHRINK AND IT SAID THIS FILE CANNOT BE COMPRESSED. Please someone tell me how to do it with imgburn. big thanks to you.


#2

Install a program called MediaInfo. It is free to use. http://mediainfo.sourceforge.net/en

Examine the file with MediaInfo and copy and paste the results you see within MediaInfo into this thread you’ve started so that we know exactly what you are working with. I find the Tree view within MediaInfo to be the most informative.

DVDShrink requires dvd-video structure. This means a Video_TS folder that contains .vob, .ifo and .bup files within it. So, if you have anything else, it won’t work.

ImgBurn will not compress video, or any other type of file. It is a burning program primarily, though you can also use it to make ISO files.


#3

thanks for taking the time.Heres my info in tree form.
General
Complete name : E:\NZB-O-Matic+\Download\The_Best_of_The Johnny_Cash_Show_1969-1971-Nopro\VIDEO_TS\VIDEO_TS.BUP
Format : DVD Video
Format profile : Menu
File size : 14.0 KiB

Video
ID : 224 (0xE0)
Format : MPEG Video
Format version : Version 2
Bit rate mode : Variable
Width : 720 pixels
Height : 480 pixels
Display aspect ratio : 4:3
Frame rate : 29.970 fps
Standard : NTSC
Compression mode : Lossy

Audio
Format : PCM
Channel(s) : 2 channels
Sampling rate : 48.0 KHz

Text
Format : RLE
Format/Info : Run-length encoding
Bit depth : 2 bits

General
Complete name : E:\NZB-O-Matic+\Download\The_Best_of_The Johnny_Cash_Show_1969-1971-Nopro\VIDEO_TS\VIDEO_TS.IFO
Format : DVD Video
Format profile : Menu
File size : 14.0 KiB

Video
ID : 224 (0xE0)
Format : MPEG Video
Format version : Version 2
Bit rate mode : Variable
Width : 720 pixels
Height : 480 pixels
Display aspect ratio : 4:3
Frame rate : 29.970 fps
Standard : NTSC
Compression mode : Lossy

Audio
Format : PCM
Channel(s) : 2 channels
Sampling rate : 48.0 KHz

Text
Format : RLE
Format/Info : Run-length encoding
Bit depth : 2 bits

General
Complete name : E:\NZB-O-Matic+\Download\The_Best_of_The Johnny_Cash_Show_1969-1971-Nopro\VIDEO_TS\VIDEO_TS.VOB
Format : MPEG-PS
File size : 50.2 MiB
Duration : 37s 96ms
Overall bit rate : 11.4 Mbps

Video
ID : 224 (0xE0)
Format : MPEG Video
Format version : Version 2
Format profile : Main@Main
Format settings, BVOP : Yes
Format settings, Matrix : Custom
Format settings, GOP : M=3, N=15
Duration : 37s 70ms
Bit rate mode : Variable
Bit rate : 9 598 Kbps
Maximum bit rate : 8 000 Kbps
Width : 720 pixels
Height : 480 pixels
Display aspect ratio : 4:3
Frame rate : 29.970 fps
Standard : NTSC
Color space : YUV
Chroma subsampling : 4:2:0
Bit depth : 8 bits
Scan type : Interlaced
Scan order : Top Field First
Compression mode : Lossy
Bits/(Pixel*Frame) : 0.927
Stream size : 42.4 MiB (84%)

Audio
ID : 189 (0xBD)-160 (0xA0)
Format : PCM
Format settings, Endianness : Big
Format settings, Sign : Signed
Muxing mode : DVD-Video
Duration : 37s 96ms
Bit rate mode : Constant
Bit rate : 1 536 Kbps
Channel(s) : 2 channels
Channel positions : Front: L R
Sampling rate : 48.0 KHz
Bit depth : 16 bits
Delay relative to video : -66ms
Stream size : 6.79 MiB (14%)

Menu

General
Complete name : E:\NZB-O-Matic+\Download\The_Best_of_The Johnny_Cash_Show_1969-1971-Nopro\VIDEO_TS\VTS_01_0.BUP
Format : DVD Video
Format profile : Program
File size : 82.0 KiB
Duration : 1h 38mn
Overall bit rate : 113 bps

Video
ID : 224 (0xE0)
Format : MPEG Video
Format version : Version 2
Duration : 1h 38mn
Bit rate mode : Variable
Width : 720 pixels
Height : 480 pixels
Display aspect ratio : 4:3
Frame rate : 29.970 fps
Standard : NTSC
Compression mode : Lossy

Audio #1
ID : 0 (0x0)
Format : PCM
Duration : 1h 38mn
Channel(s) : 2 channels
Sampling rate : 48.0 KHz
Language : English

Audio #2
ID : 129 (0x81)
Format : AC-3
Format/Info : Audio Coding 3
Duration : 1h 38mn
Channel(s) : 6 channels
Sampling rate : 48.0 KHz
Compression mode : Lossy
Language : English

Menu #1
Duration : 1h 38mn
00:00:00.000 : Chapter 1
00:05:44.833 : Chapter 2
00:14:24.399 : Chapter 3
00:18:26.632 : Chapter 4
00:24:14.265 : Chapter 5
00:30:58.397 : Chapter 6
00:39:12.396 : Chapter 7
00:41:38.862 : Chapter 8
00:47:52.095 : Chapter 9
00:51:17.428 : Chapter 10
00:55:34.194 : Chapter 11
01:03:48.227 : Chapter 12
01:07:04.559 : Chapter 13
01:11:49.624 : Chapter 14
01:21:23.323 : Chapter 15
01:24:58.389 : Chapter 16
01:28:52.488 : Chapter 17
01:32:15.587 : Chapter 18
01:35:45.787 : Chapter 19
01:38:24.986 : Chapter 20
List (Audio) : 0 / 1

Menu #2
Duration : 1h 11mn
00:00:00.000 : Chapter 1
01:00:29.000 : Chapter 2
02:00:46.000 : Chapter 3
03:01:15.000 : Chapter 4
04:01:26.000 : Chapter 5
05:01:29.640 : Chapter 6
06:02:06.640 : Chapter 7
07:02:28.640 : Chapter 8
08:02:50.640 : Chapter 9
09:03:15.640 : Chapter 10
10:03:43.640 : Chapter 11
11:03:52.600 : Chapter 12
12:04:29.600 : Chapter 13
13:05:08.600 : Chapter 14
14:05:32.600 : Chapter 15
15:05:43.600 : Chapter 16
16:05:43.680 : Chapter 17
17:05:56.680 : Chapter 18
18:06:00.680 : Chapter 19
19:06:29.680 : Chapter 20
20:06:37.680 : Chapter 21
21:06:38.960 : Chapter 22
22:07:02.960 : Chapter 23
23:07:21.960 : Chapter 24
24:07:24.040 : Chapter 25
List (Audio) : 0 / 1

Menu #3

General
Complete name : E:\NZB-O-Matic+\Download\The_Best_of_The Johnny_Cash_Show_1969-1971-Nopro\VIDEO_TS\VTS_01_0.IFO
Format : DVD Video
Format profile : Program
File size : 82.0 KiB
Duration : 1h 38mn
Overall bit rate : 113 bps

Video
ID : 224 (0xE0)
Format : MPEG Video
Format version : Version 2
Duration : 1h 38mn
Bit rate mode : Variable
Width : 720 pixels
Height : 480 pixels
Display aspect ratio : 4:3
Frame rate : 29.970 fps
Standard : NTSC
Compression mode : Lossy

Audio #1
ID : 0 (0x0)
Format : PCM
Duration : 1h 38mn
Channel(s) : 2 channels
Sampling rate : 48.0 KHz
Language : English

Audio #2
ID : 129 (0x81)
Format : AC-3
Format/Info : Audio Coding 3
Duration : 1h 38mn
Channel(s) : 6 channels
Sampling rate : 48.0 KHz
Compression mode : Lossy
Language : English

Menu #1
Duration : 1h 38mn
00:00:00.000 : Chapter 1
00:05:44.833 : Chapter 2
00:14:24.399 : Chapter 3
00:18:26.632 : Chapter 4
00:24:14.265 : Chapter 5
00:30:58.397 : Chapter 6
00:39:12.396 : Chapter 7
00:41:38.862 : Chapter 8
00:47:52.095 : Chapter 9
00:51:17.428 : Chapter 10
00:55:34.194 : Chapter 11
01:03:48.227 : Chapter 12
01:07:04.559 : Chapter 13
01:11:49.624 : Chapter 14
01:21:23.323 : Chapter 15
01:24:58.389 : Chapter 16
01:28:52.488 : Chapter 17
01:32:15.587 : Chapter 18
01:35:45.787 : Chapter 19
01:38:24.986 : Chapter 20
List (Audio) : 0 / 1

Menu #2
Duration : 1h 11mn
00:00:00.000 : Chapter 1
01:00:29.000 : Chapter 2
02:00:46.000 : Chapter 3
03:01:15.000 : Chapter 4
04:01:26.000 : Chapter 5
05:01:29.640 : Chapter 6
06:02:06.640 : Chapter 7
07:02:28.640 : Chapter 8
08:02:50.640 : Chapter 9
09:03:15.640 : Chapter 10
10:03:43.640 : Chapter 11
11:03:52.600 : Chapter 12
12:04:29.600 : Chapter 13
13:05:08.600 : Chapter 14
14:05:32.600 : Chapter 15
15:05:43.600 : Chapter 16
16:05:43.680 : Chapter 17
17:05:56.680 : Chapter 18
18:06:00.680 : Chapter 19
19:06:29.680 : Chapter 20
20:06:37.680 : Chapter 21
21:06:38.960 : Chapter 22
22:07:02.960 : Chapter 23
23:07:21.960 : Chapter 24
24:07:24.040 : Chapter 25
List (Audio) : 0 / 1

Menu #3

General
Complete name : E:\NZB-O-Matic+\Download\The_Best_of_The Johnny_Cash_Show_1969-1971-Nopro\VIDEO_TS\VTS_01_0.VOB
Format : MPEG-PS
File size : 116 MiB
Duration : 37s 96ms
Overall bit rate : 26.2 Mbps

Video
ID : 224 (0xE0)
Format : MPEG Video
Format version : Version 2
Format profile : Main@Main
Format settings, BVOP : Yes
Format settings, Matrix : Custom
Duration : 334ms
Bit rate mode : Variable
Bit rate : 24.1 Mbps
Width : 720 pixels
Height : 480 pixels
Display aspect ratio : 4:3
Frame rate : 29.970 fps
Standard : NTSC
Color space : YUV
Chroma subsampling : 4:2:0
Bit depth : 8 bits
Scan type : Interlaced
Scan order : Bottom Field First
Compression mode : Lossy
Bits/(Pixel*Frame) : 2.330
Stream size : 984 KiB (1%)

Audio
ID : 189 (0xBD)-160 (0xA0)
Format : PCM
Format settings, Endianness : Big
Format settings, Sign : Signed
Muxing mode : DVD-Video
Duration : 37s 96ms
Bit rate mode : Constant
Bit rate : 1 536 Kbps
Channel(s) : 2 channels
Channel positions : Front: L R
Sampling rate : 48.0 KHz
Bit depth : 16 bits
Stream size : 6.79 MiB (6%)

Text
ID : 189 (0xBD)-32 (0x20)
Format : RLE
Format/Info : Run-length encoding
Muxing mode : DVD-Video

Menu

General
Complete name : E:\NZB-O-Matic+\Download\The_Best_of_The Johnny_Cash_Show_1969-1971-Nopro\VIDEO_TS\VTS_01_1.VOB
File size : 1 024 MiB

General
Complete name : E:\NZB-O-Matic+\Download\The_Best_of_The Johnny_Cash_Show_1969-1971-Nopro\VIDEO_TS\VTS_01_2.VOB
Format : MPEG-PS
File size : 1 024 MiB
Duration : 16mn 12s
Overall bit rate : 8 829 Kbps

Video
ID : 224 (0xE0)
Format : MPEG Video
Format version : Version 2
Format profile : Main@Main
Format settings, BVOP : Yes
Format settings, Matrix : Custom
Duration : 16mn 12s
Bit rate mode : Variable
Bit rate : 6 669 Kbps
Maximum bit rate : 9 800 Kbps
Width : 720 pixels
Height : 480 pixels
Display aspect ratio : 4:3
Frame rate : 29.970 fps
Standard : NTSC
Color space : YUV
Chroma subsampling : 4:2:0
Bit depth : 8 bits
Scan type : Interlaced
Scan order : Top Field First
Compression mode : Lossy
Bits/(Pixel*Frame) : 0.644
Stream size : 773 MiB (76%)

Audio #1
ID : 189 (0xBD)-129 (0x81)
Format : AC-3
Format/Info : Audio Coding 3
Mode extension : CM (complete main)
Muxing mode : DVD-Video
Duration : 16mn 12s
Bit rate mode : Constant
Bit rate : 448 Kbps
Channel(s) : 6 channels
Channel positions : Front: L C R, Side: L R, LFE
Sampling rate : 48.0 KHz
Bit depth : 16 bits
Compression mode : Lossy
Delay relative to video : -182ms
Stream size : 51.9 MiB (5%)

Audio #2
ID : 189 (0xBD)-160 (0xA0)
Format : PCM
Format settings, Endianness : Big
Format settings, Sign : Signed
Muxing mode : DVD-Video
Duration : 16mn 12s
Bit rate mode : Constant
Bit rate : 1 536 Kbps
Channel(s) : 2 channels
Channel positions : Front: L R
Sampling rate : 48.0 KHz
Bit depth : 16 bits
Delay relative to video : -336ms
Stream size : 178 MiB (17%)

Menu

General
Complete name : E:\NZB-O-Matic+\Download\The_Best_of_The Johnny_Cash_Show_1969-1971-Nopro\VIDEO_TS\VTS_01_3.VOB
Format : MPEG-PS
File size : 1 024 MiB
Duration : 16mn 19s
Overall bit rate : 8 767 Kbps

Video
ID : 224 (0xE0)
Format : MPEG Video
Format version : Version 2
Format profile : Main@Main
Format settings, BVOP : Yes
Format settings, Matrix : Custom
Duration : 16mn 18s
Bit rate mode : Variable
Bit rate : 6 609 Kbps
Maximum bit rate : 9 800 Kbps
Width : 720 pixels
Height : 480 pixels
Display aspect ratio : 4:3
Frame rate : 29.970 fps
Standard : NTSC
Color space : YUV
Chroma subsampling : 4:2:0
Bit depth : 8 bits
Scan type : Interlaced
Scan order : Top Field First
Compression mode : Lossy
Bits/(Pixel*Frame) : 0.638
Stream size : 771 MiB (75%)

Audio #1
ID : 189 (0xBD)-129 (0x81)
Format : AC-3
Format/Info : Audio Coding 3
Mode extension : CM (complete main)
Muxing mode : DVD-Video
Duration : 16mn 19s
Bit rate mode : Constant
Bit rate : 448 Kbps
Channel(s) : 6 channels
Channel positions : Front: L C R, Side: L R, LFE
Sampling rate : 48.0 KHz
Bit depth : 16 bits
Compression mode : Lossy
Delay relative to video : -114ms
Stream size : 52.3 MiB (5%)

Audio #2
ID : 189 (0xBD)-160 (0xA0)
Format : PCM
Format settings, Endianness : Big
Format settings, Sign : Signed
Muxing mode : DVD-Video
Duration : 16mn 19s
Bit rate mode : Constant
Bit rate : 1 536 Kbps
Channel(s) : 2 channels
Channel positions : Front: L R
Sampling rate : 48.0 KHz
Bit depth : 16 bits
Delay relative to video : -270ms
Stream size : 179 MiB (18%)

Menu

General
Complete name : E:\NZB-O-Matic+\Download\The_Best_of_The Johnny_Cash_Show_1969-1971-Nopro\VIDEO_TS\VTS_01_4.VOB
Format : MPEG-PS
File size : 1 024 MiB

Audio #1
ID : 189 (0xBD)-129 (0x81)
Format : AC-3
Format/Info : Audio Coding 3
Mode extension : CM (complete main)
Muxing mode : DVD-Video
Bit rate mode : Constant
Bit rate : 448 Kbps
Channel(s) : 6 channels
Channel positions : Front: L C R, Side: L R, LFE
Sampling rate : 48.0 KHz
Bit depth : 16 bits
Compression mode : Lossy

Audio #2
ID : 189 (0xBD)-160 (0xA0)
Format : PCM
Format settings, Endianness : Big
Format settings, Sign : Signed
Muxing mode : DVD-Video
Bit rate mode : Constant
Bit rate : 1 536 Kbps
Channel(s) : 2 channels
Channel positions : Front: L R
Sampling rate : 48.0 KHz
Bit depth : 16 bits

Menu

General
Complete name : E:\NZB-O-Matic+\Download\The_Best_of_The Johnny_Cash_Show_1969-1971-Nopro\VIDEO_TS\VTS_01_5.VOB
Format : MPEG-PS
File size : 1 023 MiB
Duration : 17mn 16s
Overall bit rate : 8 285 Kbps

Video
ID : 224 (0xE0)
Format : MPEG Video
Format version : Version 2
Format profile : Main@Main
Format settings, BVOP : Yes
Format settings, Matrix : Custom
Duration : 434ms
Bit rate mode : Variable
Bit rate : 6 136 Kbps
Maximum bit rate : 9 800 Kbps
Width : 720 pixels
Height : 480 pixels
Display aspect ratio : 4:3
Frame rate : 29.970 fps
Standard : NTSC
Color space : YUV
Chroma subsampling : 4:2:0
Bit depth : 8 bits
Scan type : Interlaced
Scan order : Top Field First
Compression mode : Lossy
Bits/(Pixel*Frame) : 0.592
Stream size : 325 KiB (0%)

Audio #1
ID : 189 (0xBD)-129 (0x81)
Format : AC-3
Format/Info : Audio Coding 3
Mode extension : CM (complete main)
Muxing mode : DVD-Video
Duration : 17mn 16s
Bit rate mode : Constant
Bit rate : 448 Kbps
Channel(s) : 6 channels
Channel positions : Front: L C R, Side: L R, LFE
Sampling rate : 48.0 KHz
Bit depth : 16 bits
Compression mode : Lossy
Delay relative to video : -215ms
Stream size : 55.3 MiB (5%)

Audio #2
ID : 189 (0xBD)-160 (0xA0)
Format : PCM
Format settings, Endianness : Big
Format settings, Sign : Signed
Muxing mode : DVD-Video
Duration : 17mn 16s
Bit rate mode : Constant
Bit rate : 1 536 Kbps
Channel(s) : 2 channels
Channel positions : Front: L R
Sampling rate : 48.0 KHz
Bit depth : 16 bits
Delay relative to video : -337ms
Stream size : 190 MiB (19%)

Menu

General
Complete name : E:\NZB-O-Matic+\Download\The_Best_of_The Johnny_Cash_Show_1969-1971-Nopro\VIDEO_TS\VTS_01_6.VOB
Format : MPEG-PS
File size : 938 MiB

Video
ID : 224 (0xE0)
Format : MPEG Video
Format version : Version 2
Format profile : Main@Main
Format settings, BVOP : Yes
Format settings, Matrix : Custom
Bit rate mode : Variable
Maximum bit rate : 9 800 Kbps
Width : 720 pixels
Height : 480 pixels
Display aspect ratio : 4:3
Frame rate : 29.970 fps
Standard : NTSC
Color space : YUV
Chroma subsampling : 4:2:0
Bit depth : 8 bits
Scan type : Interlaced
Scan order : Top Field First
Compression mode : Lossy

Audio #1
ID : 189 (0xBD)-129 (0x81)
Format : AC-3
Format/Info : Audio Coding 3
Mode extension : CM (complete main)
Muxing mode : DVD-Video
Bit rate mode : Constant
Bit rate : 448 Kbps
Channel(s) : 6 channels
Channel positions : Front: L C R, Side: L R, LFE
Sampling rate : 48.0 KHz
Bit depth : 16 bits
Compression mode : Lossy
Delay relative to video : -230ms

Audio #2
ID : 189 (0xBD)-160 (0xA0)
Format : PCM
Format settings, Endianness : Big
Format settings, Sign : Signed
Muxing mode : DVD-Video
Bit rate mode : Constant
Bit rate : 1 536 Kbps
Channel(s) : 2 channels
Channel positions : Front: L R
Sampling rate : 48.0 KHz
Bit depth : 16 bits
Delay relative to video : -336ms

Menu


#4

Unfortunately for you, we cannot help with downloaded material that you have not paid for. Copyright still holds for these tv shows.

Look through our guidelines for copyright protected materials here: http://club.myce.com/f34/guidelines-copyright-protected-material-316049/

This thread is closed.