Trouble With Burning cue/bin-files And Then Reading The CD's

vbimport

#1

I tried with cdrwin,alcohol and nero, with different speeds, I’ve tried mounting with deamon tools and then copying it with nero…nothing works…the burning looks to be fine, but when I try to run the cd’s afterwards, it just hangs until I eject it, and if I try to explore it I get the message “f:\ is not accessible. incorrect function”…I have a Samsung SW-252B 52/24/52 CD-RW…I’ve tried the images on a different computer and it worked…please help…thanks…


#2

the images I’ve tried is Half-life and GTA3…


#3

You probably used the wrong bytes/sector policy.

Could you post the contents of a .cue file ?


#4

or the files are corrupted…


#5

contents of a cue-file:

FILE “HL-GOTY.BIN” BINARY
TRACK 01 MODE1/2352
INDEX 01 00:00:00
TRACK 02 AUDIO
PREGAP 00:02:00
INDEX 01 33:23:14
TRACK 03 AUDIO
INDEX 01 35:35:01
TRACK 04 AUDIO
INDEX 01 37:46:58
TRACK 05 AUDIO
INDEX 01 38:46:66
TRACK 06 AUDIO
INDEX 01 40:22:74
TRACK 07 AUDIO
INDEX 01 42:02:70
TRACK 08 AUDIO
INDEX 01 42:26:10
TRACK 09 AUDIO
INDEX 01 42:34:70
TRACK 10 AUDIO
INDEX 01 44:08:11
TRACK 11 AUDIO
INDEX 01 45:52:48
TRACK 12 AUDIO
INDEX 01 47:15:28
TRACK 13 AUDIO
INDEX 01 49:23:43
TRACK 14 AUDIO
INDEX 01 49:59:61
TRACK 15 AUDIO
INDEX 01 51:12:55
TRACK 16 AUDIO
INDEX 01 53:13:13
TRACK 17 AUDIO
INDEX 01 53:29:29
TRACK 18 AUDIO
INDEX 01 55:33:23
TRACK 19 AUDIO
INDEX 01 57:13:52
TRACK 20 AUDIO
INDEX 01 59:09:23
TRACK 21 AUDIO
INDEX 01 60:34:18
TRACK 22 AUDIO
INDEX 01 61:58:59
TRACK 23 AUDIO
INDEX 01 63:19:30
TRACK 24 AUDIO
INDEX 01 65:09:07
TRACK 25 AUDIO
INDEX 01 66:26:36
TRACK 26 AUDIO
INDEX 01 68:05:69
TRACK 27 AUDIO
INDEX 01 68:43:30
TRACK 28 AUDIO
INDEX 01 69:00:57


#6

Originally posted by theunbeatable
or the files are corrupted…

Originally posted by Amaze
I’ve tried the images on a different computer and it worked…


#7

If they worked on a different computer, I presume you used a different writer to burn them.

Assuming that your bin/cue images of GTAIII are legitimate images of your own original cds, they are safedisc 2.51+ protected and your Samsung cdrw simply isn’t capable of making a good copy.

You could try enabling Bypass efm error when burning with alcohol which may work (but don’t hold your breath). You have no chance at all with cdrwin or nero.


#8

thanks, I’ll try that…I’ll let you know if it worked…


#9

I can’t find where to disable it, I’m using the latest version of alcohol 120%


#10

if the bypass efm error check box doesn’t appear does that mean my drive doesn’t support it ?


#11

I just did the 2 sheep burner test, and the same thing happened…does this mean I’m fucked for good ?


#12

Originally posted by Amaze
if the bypass efm error check box doesn’t appear does that mean my drive doesn’t support it ?

No it means that your language settings are set for US english and the option is disabled in the US and Japan for legal reasons.

Move to Canada if you want to try the option :wink: (but understand that it probably won’t work with your particular writer anyway).


#13

is there any new and good writers who can burn safeprotected games ? can u reccomend one ?


#14

I can reccommend the Lite-On 52246S and from others results, the 52X Asus. Both quite good drives and as such, you could just get whichever is cheaper.


#15

thanks…


#16

how much will the fact that they both only have 2 mb buffer memory effect their performance ?


#17

Well, they both have BURN-Proof and that virtually guarantees no Buffer Underruns, and as such they dont need a large cache. Although they do have minimum requirements, I think a 300MHz CPU and 64MB RAM is reccommended.


#18

ok, thanks once again…


#19

Your quite welcome :slight_smile: