Status report conclusions.Plextor PX-L890SA

vbimport

#1

What can you tell me about the performance of the cd writer by the Report of EAC?
Any conclusions can conclude on the accuracy of the cd writer ?

Exact Audio Copy V1.0 beta 1 from 15. November 2010

EAC extraction logfile from 5. May 2011, 14:48

Lisa Lisa and Cult Jam / Spanish Fly

Used drive : PLEXTOR DVDR PX-L890SA Adapter: 0 ID: 1

Read mode : Secure
Utilize accurate stream : Yes
Defeat audio cache : No
Make use of C2 pointers : Yes

Read offset correction : 6
Overread into Lead-In and Lead-Out : No
Fill up missing offset samples with silence : Yes
Delete leading and trailing silent blocks : No
Null samples used in CRC calculations : No
Used interface : Native Win32 interface for Win NT & 2000
Gap handling : Not detected, thus appended to previous track

Used output format : Internal WAV Routines
Sample format : 44.100 Hz; 16 Bit; Stereo

TOC of the extracted CD

Track | Start | Length | Start sector | End sector

1 | 0:00.00 | 5:10.57 | 0 | 23306
2 | 5:10.57 | 5:03.20 | 23307 | 46051
3 | 10:14.02 | 6:12.73 | 46052 | 74024
4 | 16:27.00 | 4:53.45 | 74025 | 96044
5 | 21:20.45 | 1:09.42 | 96045 | 101261
6 | 22:30.12 | 4:45.73 | 101262 | 122709
7 | 27:16.10 | 5:22.47 | 122710 | 146906
8 | 32:38.57 | 5:07.45 | 146907 | 169976
9 | 37:46.27 | 5:05.08 | 169977 | 192859
10 | 42:51.35 | 0:23.40 | 192860 | 194624

Track 1

Filename C:\Users\TSR\Music\Everything Will B-Fine.wav

Peak level 100.0 %
Extraction speed 12.7 X
Track quality 99.9 %
Copy CRC 08494EC6
Accurately ripped (confidence 13) [44E50005]
Copy OK

Track 2

Filename C:\Users\TSR\Music\Head to Toe.wav

Peak level 100.0 %
Extraction speed 12.2 X
Track quality 100.0 %
Copy CRC 56093218
Accurately ripped (confidence 13) [B8462AB1]
Copy OK

Track 3

Filename C:\Users\TSR\Music\A Face in the Crowd.wav

Peak level 100.0 %
Extraction speed 18.2 X
Track quality 100.0 %
Copy CRC 0C6BE8B5
Accurately ripped (confidence 13) [927C8391]
Copy OK

Track 4

Filename C:\Users\TSR\Music\Someone to Love Me for Me.wav

Peak level 100.0 %
Extraction speed 16.4 X
Track quality 100.0 %
Copy CRC AA18240E
Accurately ripped (confidence 13) [764BE11F]
Copy OK

Track 5

Filename C:\Users\TSR\Music\Talking Nonsense.wav

Peak level 58.9 %
Extraction speed 16.7 X
Track quality 100.0 %
Copy CRC 965B6B6E
Accurately ripped (confidence 13) [C5413B57]
Copy OK

Track 6

Filename C:\Users\TSR\Music\I Promise You.wav

Peak level 95.1 %
Extraction speed 17.9 X
Track quality 100.0 %
Copy CRC 6FF3EA44
Accurately ripped (confidence 13) [247B81C2]
Copy OK

Track 7

Filename C:\Users\TSR\Music\A Fool Is Born Everyday.wav

Peak level 100.0 %
Extraction speed 17.9 X
Track quality 100.0 %
Copy CRC 0501851D
Accurately ripped (confidence 13) [89F7ACFE]
Copy OK

Track 8

Filename C:\Users\TSR\Music\Lost In Emotion.wav

Peak level 100.0 %
Extraction speed 16.4 X
Track quality 99.9 %
Copy CRC 6C4D98A6
Accurately ripped (confidence 13) [38528F18]
Copy OK

Track 9

Filename C:\Users\TSR\Music\Playing With Fire.wav

Peak level 97.1 %
Extraction speed 17.6 X
Track quality 100.0 %
Copy CRC F0AA2C5E
Accurately ripped (confidence 13) [7FFB498D]
Copy OK

Track 10

Filename C:\Users\TSR\Music\UNTITLED ENDING TRACK.wav

Peak level 27.8 %
Extraction speed 11.4 X
Track quality 100.0 %
Copy CRC F9624D6C
Accurately ripped (confidence 12) [7B641AA0]
Copy OK

All tracks accurately ripped

No errors occurred