Single FLAC Audio to Individual Audio Tracks

vbimport

#1

I’ve got QUE & FLAC Audio Files I’ve burned to CD-R using Burrrn. Burns okay but I get one big FLAC file instead of individual tracks. The QUE file shows the individual tracks broken down so I thought it would cause the FLAC file to burn that way.

I tried renaming the FLAC file to a WAV to match line 4 in the QUE file, didn’t work. So I renamed the 4th line of the QUE file to (file name).FLAC and it burned okay, but like I said am left with one big FLAC file instead of individual audio tracks. Do I need to convert the FLAC to a WAV with something and then burn?

Any suggestions? Am I doing something wrong? Appreciate any help I can get

Oh yea. I have a FLAC Nero Plug-In (*.DLL format) I thought might work, but can’t figure out where in the Nero folder to drop it.

Thanks,

BeeJay - pseudo-newbie, i.e., some experience, but always learning


#2

post the cue file
its easier if i can see it.


#3

Original Cue file. As you can see, line 4 is where it references the compressed audio file, which was compressed as a FLAC, not a WAV. So line 3 of this cue file is where I changed it to *.FLAC

CATALOG 0602498193136
PERFORMER “Cream”
TITLE “Disraeli Gears (Deluxe Editon) Disc 1”
FILE “Cream_1967. Disraeli Gears_2004. Deluxe Edition. cd1.wav” WAVE
TRACK 01 AUDIO
TITLE “Strange Brew”
PERFORMER “Cream”
INDEX 01 00:00:00
TRACK 02 AUDIO
TITLE “Sunshine Of Your Love”
PERFORMER “Cream”
INDEX 00 02:46:21
INDEX 01 02:49:62
TRACK 03 AUDIO
TITLE “World Of Pain”
PERFORMER “Cream”
INDEX 00 07:00:17
INDEX 01 07:02:55
TRACK 04 AUDIO
TITLE “Dance The Night Away”
PERFORMER “Cream”
INDEX 00 10:05:14
INDEX 01 10:08:41
TRACK 05 AUDIO
TITLE “Blue Condition”
PERFORMER “Cream”
INDEX 00 13:42:19
INDEX 01 13:44:64
TRACK 06 AUDIO
TITLE “Tales Of brave Ulysses”
PERFORMER “Cream”
INDEX 00 17:14:43
INDEX 01 17:17:22
TRACK 07 AUDIO
TITLE “SWLABR”
PERFORMER “Cream”
INDEX 00 20:03:56
INDEX 01 20:06:61
TRACK 08 AUDIO
TITLE “We’re Going Wrong”
PERFORMER “Cream”
INDEX 00 22:38:37
INDEX 01 22:41:07
TRACK 09 AUDIO
TITLE “Outside Woman Blues”
PERFORMER “Cream”
INDEX 00 26:07:64
INDEX 01 26:10:67
TRACK 10 AUDIO
TITLE “Take It Back”
PERFORMER “Cream”
INDEX 00 28:35:55
INDEX 01 28:38:27
TRACK 11 AUDIO
TITLE “Mother’s Lament”
PERFORMER “Cream”
INDEX 00 31:42:19
INDEX 01 31:45:58
TRACK 12 AUDIO
TITLE “Lawdy Mama version 2”
PERFORMER “Cream”
INDEX 00 33:32:22
INDEX 01 33:35:11
TRACK 13 AUDIO
TITLE “Blue Condition (Alternate Version)”
PERFORMER “Cream”
INDEX 00 36:22:28
INDEX 01 36:25:09
TRACK 14 AUDIO
TITLE “We’re Going Wrong (Demo)”
PERFORMER “Cream”
INDEX 00 39:34:06
INDEX 01 39:36:63
TRACK 15 AUDIO
TITLE “Hey Now Princess (Demo)”
PERFORMER “Cream”
INDEX 00 43:26:12
INDEX 01 43:26:45
TRACK 16 AUDIO
TITLE “SWLABR (Demo)”
PERFORMER “Cream”
INDEX 00 46:57:46
INDEX 01 46:59:71
TRACK 17 AUDIO
TITLE “Weird Of Hermiston (Demo)”
PERFORMER “Cream”
INDEX 00 51:30:26
INDEX 01 51:33:55
TRACK 18 AUDIO
TITLE “The Clearout (Demo)”
PERFORMER “Cream”
ISRC NLF059790020
INDEX 00 54:46:00
INDEX 01 54:48:23


#4

convert the audio file to wave and use this cue (best option) or
FILE “Cream_1967. Disraeli Gears_2004. Deluxe Edition. cd1.flac” WAVE
since you have the nero plug -in for flac files
i think this will work , but im not an expert :slight_smile: