Sensation 2001 cue

vbimport

#1

Ik heb de .Cue files nodig van Sensation 2001, kan iemand mij zeggen waar ik die zou kunnen downloaden ???
Zou ik echt blij mee zijn.

Alvast Bedankt !!!


#2

Heb wel de CloneCD images voor je


#3

extracten met winiso , dan heb je de cue niet meer nodig!


#4

zonder woorden :slight_smile:

FILE "CD1.BIN" BINARY
  TRACK 01 AUDIO
    INDEX 01 00:00:00
  TRACK 02 AUDIO
    INDEX 01 01:57:61
  TRACK 03 AUDIO
    INDEX 01 07:14:19
  TRACK 04 AUDIO
    INDEX 01 12:32:32
  TRACK 05 AUDIO
    INDEX 01 19:24:17
  TRACK 06 AUDIO
    INDEX 01 24:40:55
  TRACK 07 AUDIO
    INDEX 01 28:47:35
  TRACK 08 AUDIO
    INDEX 01 33:46:73
  TRACK 09 AUDIO
    INDEX 01 39:05:14
  TRACK 10 AUDIO
    INDEX 01 43:38:45
  TRACK 11 AUDIO
    INDEX 01 48:48:00
  TRACK 12 AUDIO
    INDEX 01 52:32:32
  TRACK 13 AUDIO
    INDEX 01 55:26:34
  TRACK 14 AUDIO
    INDEX 01 59:27:04
  TRACK 15 AUDIO
    INDEX 01 63:41:19
  TRACK 16 AUDIO
    INDEX 01 68:38:49
  TRACK 17 AUDIO
    INDEX 01 73:01:63 

en

FILE "CD2.BIN" BINARY
  TRACK 01 AUDIO
    INDEX 01 00:00:00
  TRACK 02 AUDIO
    INDEX 01 02:28:49
  TRACK 03 AUDIO
    INDEX 01 06:06:48
  TRACK 04 AUDIO
    INDEX 01 10:14:71
  TRACK 05 AUDIO
    INDEX 01 16:08:51
  TRACK 06 AUDIO
    INDEX 01 20:54:32
  TRACK 07 AUDIO
    INDEX 01 25:48:51
  TRACK 08 AUDIO
    INDEX 01 30:34:55
  TRACK 09 AUDIO
    INDEX 01 36:34:20
  TRACK 10 AUDIO
    INDEX 01 40:28:70
  TRACK 11 AUDIO
    INDEX 01 45:03:43
  TRACK 12 AUDIO
    INDEX 01 48:23:24
  TRACK 13 AUDIO
    INDEX 01 53:09:47
  TRACK 14 AUDIO
    INDEX 01 57:35:71
  TRACK 15 AUDIO
    INDEX 01 61:39:00
  TRACK 16 AUDIO
    INDEX 01 66:04:19
  TRACK 17 AUDIO
    INDEX 01 70:18:52


#5

Originally posted by Digital Mayhem
extracten met winiso , dan heb je de cue niet meer nodig!

hej die sig van je is van Scooter…:cool:


#6

Thnx allemaal !!!