Question about copy protect cd with freelock

hi all:

I want to copy protect my vcd and followed the guide fromMaking a copy protected VCD and use “freelock c:\videocd.cue” /o" to overburn the .cue file.But when I open the bloated-up .cue file in cdmage,
cdmage complained that “cannot open specified file line 11”, It’s the second
track that freelock added(and oddly not the first added track). I just could not figure out why,could someone help me.

       thanks!!!!!!!!!

and
freelock 1.3
cdmage 1.01.5
and following is the bloated up .cue file

FILE c:\videocd.bin BINARY
TRACK 01 MODE2/2352
INDEX 01 00:00:00
TRACK 02 MODE2/2352
INDEX 00 00:04:00
INDEX 01 00:06:00

FILE C:\FREELOCK.DAT BINARY
TRACK 03 MODE2/2352
INDEX 01 00:00:00
FILE C:\FREELOCK.DAT BINARY-----------------------------line 11
TRACK 04 MODE2/2352
INDEX 01 00:00:00
FILE C:\FREELOCK.DAT BINARY
TRACK 05 MODE2/2352
INDEX 01 00:00:00
FILE C:\FREELOCK.DAT BINARY
TRACK 06 MODE1/2352
INDEX 01 00:00:00
FILE C:\FREELOCK.DAT BINARY
TRACK 07 MODE2/2352
INDEX 01 00:00:00
FILE C:\FREELOCK.DAT BINARY
TRACK 08 MODE2/2352
INDEX 01 00:00:00
FILE C:\FREELOCK.DAT BINARY
TRACK 09 MODE1/2352
INDEX 01 00:00:00
FILE C:\FREELOCK.DAT BINARY
TRACK 10 AUDIO
INDEX 01 00:00:00
FILE C:\FREELOCK.DAT BINARY
TRACK 11 MODE1/2352
INDEX 01 00:00:00
FILE C:\FREELOCK.DAT BINARY
TRACK 12 MODE2/2352
INDEX 01 00:00:00
FILE C:\FREELOCK.DAT BINARY
TRACK 13 MODE1/2352
INDEX 01 00:00:00
FILE C:\FREELOCK.DAT BINARY
TRACK 14 AUDIO
INDEX 01 00:00:00
FILE C:\FREELOCK.DAT BINARY
TRACK 15 MODE1/2352
INDEX 01 00:00:00
FILE C:\FREELOCK.DAT BINARY
TRACK 16 MODE1/2352
INDEX 01 00:00:00
FILE C:\FREELOCK.DAT BINARY
TRACK 17 AUDIO
INDEX 01 00:00:00
FILE C:\FREELOCK.DAT BINARY
TRACK 18 MODE1/2352
INDEX 01 00:00:00
FILE C:\FREELOCK.DAT BINARY
TRACK 19 AUDIO
INDEX 01 00:00:00
FILE C:\FREELOCK.DAT BINARY
TRACK 20 MODE2/2352
INDEX 01 00:00:00
FILE C:\FREELOCK.DAT BINARY
TRACK 21 AUDIO
INDEX 01 00:00:00
FILE C:\FREELOCK.DAT BINARY
TRACK 22 MODE2/2352
INDEX 01 00:00:00
FILE C:\FREELOCK.DAT BINARY
TRACK 23 MODE2/2352
INDEX 01 00:00:00
FILE C:\FREELOCK.DAT BINARY
TRACK 24 MODE2/2352
INDEX 01 00:00:00
FILE C:\FREELOCK.DAT BINARY
TRACK 25 MODE1/2352
INDEX 01 00:00:00
FILE C:\FREELOCK.DAT BINARY
TRACK 26 MODE1/2352
INDEX 01 00:00:00
FILE C:\FREELOCK.DAT BINARY
TRACK 27 AUDIO
INDEX 01 00:00:00
FILE C:\FREELOCK.DAT BINARY
TRACK 28 MODE2/2352
INDEX 01 00:00:00
FILE C:\FREELOCK.DAT BINARY
TRACK 29 AUDIO
INDEX 01 00:00:00
FILE C:\FREELOCK.DAT BINARY
TRACK 30 AUDIO
INDEX 01 00:00:00
FILE C:\FREELOCK.DAT BINARY
TRACK 31 MODE1/2352
INDEX 01 00:00:00
FILE C:\FREELOCK.DAT BINARY
TRACK 32 MODE1/2352
INDEX 01 00:00:00
FILE C:\FREELOCK.DAT BINARY
TRACK 33 MODE1/2352
INDEX 01 00:00:00
FILE C:\FREELOCK.DAT BINARY
TRACK 34 MODE2/2352
INDEX 01 00:00:00
FILE C:\FREELOCK.DAT BINARY
TRACK 35 MODE1/2352
INDEX 01 00:00:00
FILE C:\FREELOCK.DAT BINARY
TRACK 36 AUDIO
INDEX 01 00:00:00
FILE C:\FREELOCK.DAT BINARY
TRACK 37 MODE2/2352
INDEX 01 00:00:00
FILE C:\FREELOCK.DAT BINARY
TRACK 38 AUDIO
INDEX 01 00:00:00
FILE C:\FREELOCK.DAT BINARY
TRACK 39 MODE2/2352
INDEX 01 00:00:00
FILE C:\FREELOCK.DAT BINARY
TRACK 40 MODE1/2352
INDEX 01 00:00:00
FILE C:\FREELOCK.DAT BINARY
TRACK 41 MODE2/2352
INDEX 01 00:00:00
FILE C:\FREELOCK.DAT BINARY
TRACK 42 AUDIO
INDEX 01 00:00:00
FILE C:\FREELOCK.DAT BINARY
TRACK 43 MODE1/2352
INDEX 01 00:00:00
FILE C:\FREELOCK.DAT BINARY
TRACK 44 AUDIO
INDEX 01 00:00:00
FILE C:\FREELOCK.DAT BINARY
TRACK 45 MODE1/2352
INDEX 01 00:00:00
FILE C:\FREELOCK.DAT BINARY
TRACK 46 MODE2/2352
INDEX 01 00:00:00
FILE C:\FREELOCK.DAT BINARY
TRACK 47 MODE2/2352
INDEX 01 00:00:00
FILE C:\FREELOCK.DAT BINARY
TRACK 48 AUDIO
INDEX 01 00:00:00
FILE C:\FREELOCK.DAT BINARY
TRACK 49 MODE2/2352
INDEX 01 00:00:00
FILE C:\FREELOCK.DAT BINARY
TRACK 50 AUDIO
INDEX 01 00:00:00
FILE C:\FREELOCK.DAT BINARY
TRACK 51 MODE1/2352
INDEX 01 00:00:00
FILE C:\FREELOCK.DAT BINARY
TRACK 52 AUDIO
INDEX 01 00:00:00
FILE C:\FREELOCK.DAT BINARY
TRACK 53 MODE2/2352
INDEX 01 00:00:00
FILE C:\FREELOCK.DAT BINARY
TRACK 54 MODE1/2352
INDEX 01 00:00:00
FILE C:\FREELOCK.DAT BINARY
TRACK 55 AUDIO
INDEX 01 00:00:00
FILE C:\FREELOCK.DAT BINARY
TRACK 56 MODE1/2352
INDEX 01 00:00:00
FILE C:\FREELOCK.DAT BINARY
TRACK 57 AUDIO
INDEX 01 00:00:00
FILE C:\FREELOCK.DAT BINARY
TRACK 58 MODE1/2352
INDEX 01 00:00:00
FILE C:\FREELOCK.DAT BINARY
TRACK 59 MODE1/2352
INDEX 01 00:00:00
FILE C:\FREELOCK.DAT BINARY
TRACK 60 AUDIO
INDEX 01 00:00:00
FILE C:\FREELOCK.DAT BINARY
TRACK 61 AUDIO
INDEX 01 00:00:00
FILE C:\FREELOCK.DAT BINARY
TRACK 62 MODE1/2352
INDEX 01 00:00:00
FILE C:\FREELOCK.DAT BINARY
TRACK 63 AUDIO
INDEX 01 00:00:00
FILE C:\FREELOCK.DAT BINARY
TRACK 64 MODE1/2352
INDEX 01 00:00:00
FILE C:\FREELOCK.DAT BINARY
TRACK 65 AUDIO
INDEX 01 00:00:00
FILE C:\FREELOCK.DAT BINARY
TRACK 66 MODE2/2352
INDEX 01 00:00:00
FILE C:\FREELOCK.DAT BINARY
TRACK 67 AUDIO
INDEX 01 00:00:00
FILE C:\FREELOCK.DAT BINARY
TRACK 68 MODE1/2352
INDEX 01 00:00:00
FILE C:\FREELOCK.DAT BINARY
TRACK 69 AUDIO
INDEX 01 00:00:00
FILE C:\FREELOCK.DAT BINARY
TRACK 70 MODE2/2352
INDEX 01 00:00:00
FILE C:\FREELOCK.DAT BINARY
TRACK 71 MODE2/2352
INDEX 01 00:00:00
FILE C:\FREELOCK.DAT BINARY
TRACK 72 AUDIO
INDEX 01 00:00:00
FILE C:\FREELOCK.DAT BINARY
TRACK 73 AUDIO
INDEX 01 00:00:00
FILE C:\FREELOCK.DAT BINARY
TRACK 74 AUDIO
INDEX 01 00:00:00
FILE C:\FREELOCK.DAT BINARY
TRACK 75 AUDIO
INDEX 01 00:00:00
FILE C:\FREELOCK.DAT BINARY
TRACK 76 AUDIO
INDEX 01 00:00:00
FILE C:\FREELOCK.DAT BINARY
TRACK 77 MODE2/2352
INDEX 01 00:00:00
FILE C:\FREELOCK.DAT BINARY
TRACK 78 AUDIO
INDEX 01 00:00:00
FILE C:\FREELOCK.DAT BINARY
TRACK 79 MODE2/2352
INDEX 01 00:00:00
FILE C:\FREELOCK.DAT BINARY
TRACK 80 MODE1/2352
INDEX 01 00:00:00
FILE C:\FREELOCK.DAT BINARY
TRACK 81 MODE2/2352
INDEX 01 00:00:00
FILE C:\FREELOCK.DAT BINARY
TRACK 82 MODE2/2352
INDEX 01 00:00:00
FILE C:\FREELOCK.DAT BINARY
TRACK 83 MODE2/2352
INDEX 01 00:00:00
FILE C:\FREELOCK.DAT BINARY
TRACK 84 MODE2/2352
INDEX 01 00:00:00
FILE C:\FREELOCK.DAT BINARY
TRACK 85 MODE2/2352
INDEX 01 00:00:00
FILE C:\FREELOCK.DAT BINARY
TRACK 86 MODE1/2352
INDEX 01 00:00:00
FILE C:\FREELOCK.DAT BINARY
TRACK 87 MODE1/2352
INDEX 01 00:00:00
FILE C:\FREELOCK.DAT BINARY
TRACK 88 MODE1/2352
INDEX 01 00:00:00
FILE C:\FREELOCK.DAT BINARY
TRACK 89 AUDIO
INDEX 01 00:00:00
FILE C:\FREELOCK.DAT BINARY
TRACK 90 MODE2/2352
INDEX 01 00:00:00
FILE C:\FREELOCK.DAT BINARY
TRACK 91 MODE1/2352
INDEX 01 00:00:00
FILE C:\FREELOCK.DAT BINARY
TRACK 92 AUDIO
INDEX 01 00:00:00
FILE C:\FREELOCK.DAT BINARY
TRACK 93 MODE1/2352
INDEX 01 00:00:00
FILE C:\FREELOCK.DAT BINARY
TRACK 94 MODE1/2352
INDEX 01 00:00:00
FILE C:\FREELOCK.DAT BINARY
TRACK 95 MODE1/2352
INDEX 01 00:00:00
FILE C:\FREELOCK.DAT BINARY
TRACK 96 MODE1/2352
INDEX 01 00:00:00
FILE C:\FREELOCK.DAT BINARY
TRACK 97 MODE1/2352
INDEX 01 00:00:00
FILE C:\FREELOCK.DAT BINARY
TRACK 98 AUDIO
INDEX 01 00:00:00
FILE C:\FREELOCK.DAT BINARY
TRACK 99 MODE1/2352
INDEX 01 00:00:00
FILE C:\FREELOCK.DAT BINARY
TRACK 100 AUDIO
INDEX 01 00:00:00
FILE C:\FREELOCK.DAT BINARY
TRACK 101 MODE2/2352
INDEX 01 00:00:00
FILE C:\FREELOCK.DAT BINARY
TRACK 102 MODE1/2352
INDEX 01 00:00:00
FILE C:\FREELOCK.DAT BINARY
TRACK 103 MODE2/2352
INDEX 01 00:00:00
FILE C:\FREELOCK.DAT BINARY
TRACK 104 MODE2/2352
INDEX 01 00:00:00
FILE C:\FREELOCK.DAT BINARY
TRACK 105 MODE2/2352
INDEX 01 00:00:00
FILE C:\FREELOCK.DAT BINARY
TRACK 106 MODE2/2352
INDEX 01 00:00:00
FILE C:\FREELOCK.DAT BINARY
TRACK 107 MODE1/2352
INDEX 01 00:00:00
FILE C:\FREELOCK.DAT BINARY
TRACK 108 MODE2/2352
INDEX 01 00:00:00

What do you mean by bloated up?

Maybe he ate too much. lol

Did you try any other software? I don’t know if it is the software or not, but I have never used that program. Good luck.

merther02:

bloating up mean deliberately overburn the disc ,that’is fill the disc something arbitrarily until it is over 95 minutes(normally 80 minutes).

Drakan:

It is just for a test, so the size of the useful content is pretty small.

I doubt it is caused by the file lock that cdmage used when open a file.
perhaps cdmage use a read/write lock, so when it open the same file a second time, it can’t get the lock ,turning out to can’t open the file.

Why are you trying to protect your VCD?

Freelock can be copied with CDRWIN (don’t even need clone or alcohol) and won’t stop VCD ripping anyway.

No way to protect a VCD w/o having compatibilty issues, try SafeVCD

Wrong Forum. Moved.

LoLZ

I love you guys!.. nice teamwork. but still dont know how to protect my vcd bieng viewd by IE. is there any other alternative here?..

Thank you.