Need help with cue file for flac disc

vbimport

#1

Hi,
I have a flac and cue disc and I am trying to split it with medieval cue splitter. I have used this many times in the past. The problem now is that when I hit the split button it only splits the first song and says split complete. I can’t find anything wrong with the cue file but I’m no expert on it. Maybe someone can spot what’s wrong with it or maybe I’m doing something wrong. Any help is appreciated. Thanks.
Here is the cue file:

REM GENRE Rock
REM DATE 1984
REM ÊONSTANTIN_SLASH_VINYLRIP
REM 1984 Made in Japan Warner-Pioneer Corporation
REM CATALOG P-11463
PERFORMER “The Cars”
TITLE “Heartbeat City”
FILE “The Cars - Heartbeat City (Japan).flac” WAVE
TRACK 01 AUDIO
TITLE “Hello Again”
PERFORMER “The Cars”
INDEX 01 00:00:00
TRACK 02 AUDIO
TITLE “Looking For Love”
PERFORMER “The Cars”
INDEX 01 03:47:10
TRACK 03 AUDIO
TITLE “Magic”
PERFORMER “The Cars”
INDEX 01 07:38:00
TRACK 04 AUDIO
TITLE “Drive”
PERFORMER “The Cars”
INDEX 01 11:35:00
TRACK 05 AUDIO
TITLE “Stranger Eyes”
PERFORMER “The Cars”
INDEX 01 15:30:05
TRACK 06 AUDIO
TITLE “You Might Think”
PERFORMER “The Cars”
INDEX 01 19:52:00
TRACK 07 AUDIO
TITLE “It’s Not the Night”
PERFORMER “The Cars”
INDEX 01 22:56:50
TRACK 08 AUDIO
TITLE “Why Can’t I Have You”
PERFORMER “The Cars”
INDEX 01 26:45:00
TRACK 09 AUDIO
TITLE “I Refuse”
PERFORMER “The Cars”
INDEX 01 30:49:00
TRACK 10 AUDIO
TITLE “Heartbeat City”
PERFORMER “The Cars”
INDEX 01 34:04:05


#2

Indexes seem ok to me…
Maybe you could try CueTools to get the job done,or FooBar.


#3

Thanks. I’ll try those and post an update later.


#4

What software did you use to create the cue posted ?


#5

Foobar worked for me. A bit of a learning curve but it’s all good. Thanks for your help.