Mp3 joiner splitter cue error

i’m using v2.65 registerd. splitting with CUE sheet. i get this message. i have used this program to split mp3s with cue files, but this message comes up alot. can someone take a look at line 6 and tell me that’s wrong…

thanks

“error format at line [6], please check the source CUE file and try it again!”

this is the CUE file.

PERFORMER “DJ Doboy”
TITLE “DJ Doboy Trancequility Volume 14”
FILE “dj_doboy-trancequility_volume_14.mp3” MP3
TRACK 01 AUDIO
TITLE “watergate - heart of asia (rising sun remix)”
INDEX 01 00:00:00
TRACK 02 AUDIO
TITLE “Barcode Brothers - It’s a Fine Day”
INDEX 01 04:52:03
TRACK 03 AUDIO
TITLE “Fragma - Everytime you need me”
INDEX 01 08:22:17
TRACK 04 AUDIO
TITLE “Thrillseekers - Synaesthesia (Darude Remix)”
INDEX 01 13:08:18
TRACK 05 AUDIO
Title “Blank and Jones - Dj Culture”
INDEX 01 18:09:51
TRACK 06 AUDIO
TITLE “Silverblue - Do You Know”
INDEX 01 24:46:43
TRACK 07 AUDIO
TITLE “Josh Miri - Lost in Time”
INDEX 01 29:49:22
TRACK 08 AUDIO
TITLE "Gemmano - Oceans and Seas (Gizeh Remix)
INDEX 01 36:23:00
TRACK 09 AUDIO
TITLE “Roland Klein - Nexus Point”
INDEX 01 43:39:34
TRACK 10 AUDIO
TITLE "Forcefield - Visions of Eden (John 00 Flemming Remix)
INDEX 01 49:37:33
TRACK 11 AUDIO
TITLE "Starparty - I’m in Love (F Corsten Mix)
INDEX 01 56:52:22
TRACK 12 AUDIO
TITLE “Armin - Furure Funland”
INDEX 01 62:50:15
TRACK 13 AUDIO
TITLE “Rainbow Warrior - La Musique”
INDEX 01 69:11:45