Mp3 hakken -> vraagje ivm cue-file

vbimport

#1

ff gaan zoeken en ik heb gevonden dat een cue-file je mp3’tje in stukjes kan hakken.
Nu m’n mp3 is een 80MB groot en is een mix. Ik heb het zelf gemixt en wil em dus op cd en wil kunnen skippen.

Ik heb van een cd een cue-file gemaakt, dus weet hoe em ineenzit.
Nu, hoe maak ik van m’n mp3 een .bin file als ik dan die bin-file heb, moet ik dan enkel de .cue file (van een andere cd) aanpassen naar believen.?

vb: FILE “C:\TEST.BIN” BINARY
TRACK 01 AUDIO
INDEX 00 00:00:00
INDEX 01 00:00:32
TRACK 02 AUDIO
INDEX 00 06:13:02
INDEX 01 06:13:07
TRACK 03 AUDIO
INDEX 01 12:28:47

Dit is de .cue van een cd. Is het in orde als ik het path aanpas en dan de trax? Kan ik dan skippen wanneer ik wil?
Ik weet dat het een beetje onduidelijk geformuleerd is, maar ik hoop dat jullie me kunnen helpen

TIA

Liquidsky


#2

je hoeft er helemaal geen .bin van te maken:
ik zal ff een stukkie cut & paste-en uit een gedownloade cue-sheet:

CDTEXTFILE “(dj_tiesto)-magik_6_live_in_amsterdam_keef-bmi.cdt”
FILE “(dj_tiesto)-magik_6_live_in_amsterdam_cd_keef-bmi.mp3” MP3
TRACK 01 AUDIO
INDEX 01 00:00:00
TRACK 02 AUDIO
INDEX 01 06:06:44

en dit is zonder problemen te branden…


#3

Originally posted by LIquidsky
[B]ff gaan zoeken en ik heb gevonden dat een cue-file je mp3’tje in stukjes kan hakken.
Nu m’n mp3 is een 80MB groot en is een mix. Ik heb het zelf gemixt en wil em dus op cd en wil kunnen skippen.

Ik heb van een cd een cue-file gemaakt, dus weet hoe em ineenzit.
Nu, hoe maak ik van m’n mp3 een .bin file als ik dan die bin-file heb, moet ik dan enkel de .cue file (van een andere cd) aanpassen naar believen.?

vb: FILE “C:\TEST.BIN” BINARY
TRACK 01 AUDIO
INDEX 00 00:00:00
INDEX 01 00:00:32
TRACK 02 AUDIO
INDEX 00 06:13:02
INDEX 01 06:13:07
TRACK 03 AUDIO
INDEX 01 12:28:47

Dit is de .cue van een cd. Is het in orde als ik het path aanpas en dan de trax? Kan ik dan skippen wanneer ik wil?
Ik weet dat het een beetje onduidelijk geformuleerd is, maar ik hoop dat jullie me kunnen helpen

TIA

Liquidsky [/B]

Je bent in feite al een heel eind op weg met je cue sheet je hoeft nog maar een paar dingen te doen en dan ben je der al.


FILE "C:\TEST.MP3" MP3   <- zorg hier nu wel dat de MP3 op juiste plek staat
  TRACK 01 AUDIO
    INDEX 00 00:00:00
    INDEX 01 00:00:32
  TRACK 02 AUDIO
    INDEX 00 06:13:02   <------ Kun je zien dat je een Pregap hebt van 5 frames 
    INDEX 01 06:13:07   <---/
  TRACK 03 AUDIO
    INDEX 01 12:28:47  <----- Dit nummer gaat door op het vorige zonder pregap

Trouwens als je er niet helemaal vertouwd met bent dan is het misschien raadzaam om deze winamp plugin te gebruiken http://www.guerillasoft.com/mp3cue/index.html namelijk als je met deze plugin dus dan je MP3 file inlaad en in dezelfde dir staat ook de CUE (met dezlfde naam als MP3) dan laat hij de playlist zien. Hiermee kun je dus goed zien of je je Cue goed gebruikt hebt.

PS gebruik wel de next en peview knoppen die op de plugin zitten en niet die van winamp standaard


#4

Hartelijk bedantk jongens.
Ik heb het voor elkaar gekregen…wheehee. THANK YOU!!!


#5

ok dan! goe gedaan! Wat voor music heb je gemaakt btw? :stuck_out_tongue:


#6

eigengemaakte mix (trance)


#7

Als je nou gewoon in cooleditpro de mp3 inlaad en vervolgens met cuepoints deze punten zetten en vervolgens uit het menu de save functie kiest (als wav) kun je vervolgens gewoon deze wav files op een cd branden zonder pauzes en kun je skippen naar hartelust( Als je een cdspeler met index punten hebt kun je bij nero ook nog de index points toevoeggen)


#8

Originally posted by Crowley
Als je nou gewoon in cooleditpro de mp3 inlaad en vervolgens met cuepoints deze punten zetten en vervolgens uit het menu de save functie kiest (als wav) kun je vervolgens gewoon deze wav files op een cd branden zonder pauzes en kun je skippen naar hartelust( Als je een cdspeler met index punten hebt kun je bij nero ook nog de index points toevoeggen)

dat kan ook…vervolgens…wel meer werk :stuck_out_tongue:


#9

k, kan ik eventueel ook proberen (als ik me cooledit nog ma vind).

Enne, ik zou graag op de cd-speler in de radio een tekst zetten als me cd erin steekt. Zo van “Dj Tomek” of zoiets. Hoe kan dat?
Ik heb een plextor 8220?
Is dat cd-text ofzoiets?


#10

Of je met die brander CD-text kan branden weet ik zo niet uit men hoofd, waarschijnlijk wel maar kijk voor de zekerheid toch maar even bij plextor, maar als je brander het niet mocht ondersteunen dan negeerd cdrwin gewoon de cdtext gedeelte onder het branden en ondersteund i het wel dan brand i het mee.(Ikzelf verwacht eigenlijk wel dat i het ondersteund)

Hoe je cue er dan uit zou kunnen zien is zoiets:


TITLE "blablabla"         <-- titel CD
PERFORMER "blablabla"  <-- artiest bijvoorbeeld of various
FILE "C:\TEST.MP3" MP3
  TRACK 01 AUDIO
    TITLE "titel nummer"    <--\
    PERFORMER "artiest"   <--- logisch lijken mij
    INDEX 00 00:00:00
    INDEX 01 00:00:32
  TRACK 02 AUDIO
    TITLE "titel nummer"
    PERFORMER "artiest
    INDEX 00 06:13:02 
    INDEX 01 06:13:07
  TRACK 03 AUDIO
    TITLE "titel nummer"
    PERFORMER "artiest
    INDEX 01 12:28:47 

Dit is een uitgebeide methode je kan het bijvoorbeeld ook wat korter doen als je bijvoorbeeld maar 1 artiest hebt


TITLE "blablabla"
PERFORMER "blablabla"
FILE "C:\TEST.MP3" MP3
  TRACK 01 AUDIO
    TITLE "titel nummer"
    INDEX 00 00:00:00
    INDEX 01 00:00:32
  TRACK 02 AUDIO
    TITLE "titel nummer"
    INDEX 00 06:13:02 
    INDEX 01 06:13:07
  TRACK 03 AUDIO
    TITLE "titel nummer"
    INDEX 01 12:28:47 


#11

Originally posted by LIquidsky
[B]Enne, ik zou graag op de cd-speler in de radio een tekst zetten als me cd erin steekt.

Ik heb een plextor 8220?
Is dat cd-text ofzoiets? [/B]

Dat heet CD-Text inderdaad.
Volgens Plextor specificaties ondersteunt je brander dit:

Creates Audio CD, CD Extra, Enhanced CD, Photo CD, CD-I & Video CD Titles, CD+G, CD-Text.


#12

Was zelf ook ff m’n licht gaan opsteken op hun site en idd hij ondersteunt het…lekker.

Toch bedankt voor het opzoekingswerk Da_taxman


#13

Nog een vraagje. (2 eigenlijk)
1 Het is me dus gelukt hé, die cue-file. Gaat zeer goed.
Enkel heb ik in het begin, een klein tikje zodat een klein (seconde ofzo) stukje wegvalt (bij het 1e liedje). De rest perfect.

-> hoe komt dit?

Dit is de cue-file:

TITLE “DJ Tomek in the mix vol 1”
FILE “C:\Mixes\Tomek1.WAV” BINARY
TRACK 01 AUDIO
INDEX 01 00:00:00
TRACK 02 AUDIO
INDEX 01 06:57:00
TRACK 03 AUDIO
INDEX 01 12:20:00
TRACK 04 AUDIO
INDEX 01 16:35:00
TRACK 05 AUDIO
INDEX 01 20:02:00
TRACK 06 AUDIO
INDEX 01 26:05:00
TRACK 07 AUDIO
INDEX 01 30:36:00
TRACK 08 AUDIO
INDEX 01 35:27:00
TRACK 09 AUDIO
INDEX 01 39:54:00
TRACK 10 AUDIO
INDEX 01 45:21:00
TRACK 11 AUDIO
INDEX 01 48:56:00
TRACK 12 AUDIO
INDEX 01 53:51:00
TRACK 13 AUDIO
INDEX 01 58:54:00
TRACK 14 AUDIO
INDEX 01 64:04:42

2 Het is dus een wav-file hé en redelijk groot. (700MB). Als ik deze converteer naar mp3 en alles aanpas, kan ik em dan nog steeds in mijn audio-cdspeler beluisteren, neen hé? Ik zou graag een mp3 bestand met de cue-file hebben, zodat ik em kan uploaden en dan men hem kan downloaden. (is kleiner). Maar ik zou dus graag hebben dat diegene die em download ook op cd kan schrijven (en dus kan skippen).

Hoe doe ik dit?

Alvast bedankt

Liquidsky


#14

Die tik ligt denk ik aan het feit dat je je Wav als binary leest want dat behoort eigenlijk Wave te zijn dus

FILE “C:\Mixes\Tomek1.WAV” BINARY
veranderen in
FILE “C:\Mixes\Tomek1.WAV” WAVE

Okk is het denk ik om je dir te verwijderen en gewoon de cue en WAVE/MP3 bij elkaren in 1 dir te houden dus dan wordt het:

FILE “Tomek1.WAV” WAVE

Dit is alleen maar prettiger voor zulke mensen die niet vaak met cue gespeelt hebben en voorkomt je wat vragen.

Maar je kan makkelijk je Wave converteren naar MP3 alleen moet je dan 1 ding aan je Cue veranderen namelijk in dit:


TITLE "DJ Tomek in the mix vol 1"
FILE "Tomek1.MP3" MP3
  TRACK 01 AUDIO
    INDEX 01 00:00:00
  TRACK 02 AUDIO
    INDEX 01 06:57:00
  TRACK 03 AUDIO
    INDEX 01 12:20:00
  TRACK 04 AUDIO
    INDEX 01 16:35:00
  TRACK 05 AUDIO
    INDEX 01 20:02:00
  TRACK 06 AUDIO
    INDEX 01 26:05:00
  TRACK 07 AUDIO
    INDEX 01 30:36:00
  TRACK 08 AUDIO
    INDEX 01 35:27:00
  TRACK 09 AUDIO
    INDEX 01 39:54:00
  TRACK 10 AUDIO
    INDEX 01 45:21:00
  TRACK 11 AUDIO
    INDEX 01 48:56:00
  TRACK 12 AUDIO
    INDEX 01 53:51:00
  TRACK 13 AUDIO
    INDEX 01 58:54:00
  TRACK 14 AUDIO
    INDEX 01 64:04:42


#15

[QUOTE

Hoe je cue er dan uit zou kunnen zien is zoiets:


TITLE "blablabla"         <-- titel CD
PERFORMER "blablabla"  <-- artiest bijvoorbeeld of various
FILE "C:\TEST.MP3" MP3
  TRACK 01 AUDIO
    TITLE "titel nummer"    <--\
    PERFORMER "artiest"   <--- logisch lijken mij
    INDEX 00 00:00:00
    INDEX 01 00:00:32
  TRACK 02 AUDIO
    TITLE "titel nummer"
    PERFORMER "artiest
    INDEX 00 06:13:02 
    INDEX 01 06:13:07
  TRACK 03 AUDIO
    TITLE "titel nummer"
    PERFORMER "artiest
    INDEX 01 12:28:47 

[/QUOTE]

:slight_smile: Dit werkt dus ook PERFECT hé…THX :slight_smile:


#16

Wat ik nog even wilde toevoegen;

je kan met Nero ook heel gemakkelijk je te branden liedje van zeg 80 minuten in stukjes hakken!
Wat je dan moet doen is in Nero/audioCD het nummer (die van 80min) naar links slepen (waar staat wat gebakken gaat worden) en dan de properties van deze file kiezen en het bereik aangeven op het 2e tabblad. Dus start en end aangeven dat van dit nr daadwerkelijk gefikt gaat worden.
vb
start: 00min 00sec 00fra
end: 05min 00sec 00fra

Nu worden de 1e 5 minuten van het complete nr alleen op de cd gezet.
Dan maak je het 2e nr aan:

start: 05min 00sec 00fra
end: 10min 00sec 00fra

Nu word het gedeelte vanaf minuut 5 tot minuut 10 gebakken als track 2. Maak zo de hele cd vol op gewenste cuepoints en zorg ervoor dat je bij elk nr behalve de 1e (hier kan dit niet!) de 2sec-GAB weghaalt!!
Dan bak je de cd in DAO mode om tikken bij overgaan naar nieuwe track te voorkomen!

:stuck_out_tongue: It’s a simple! :stuck_out_tongue:


#17

Kewl…zeker is proberen

Thanx


#18

Originally posted by LIquidsky
[B]Kewl…zeker is proberen

Thanx [/B]

Moet je zekers doen, is vet gemakkelijk en… effectief! :slight_smile:


#19

nou is mijn vraag hoe ik zo’n cue bestand uit mekaar haal.
is hier een proggie voor ofzo.
ik hoop dat jullie me kunen helpen.

Robert FOlKers
:confused:


#20

Originally posted by robertfolkers
[B]nou is mijn vraag hoe ik zo’n cue bestand uit mekaar haal.
is hier een proggie voor ofzo.
ik hoop dat jullie me kunen helpen.

Robert FOlKers
:confused: [/B]

Kun je gewoon in een texteditor openen. Notepad voldoet al! :slight_smile: