I can't split this ape - cue

First of all, what I wanted to do is to split the ape-cue into separate tracks. Usually my favourite software is cue splitter. In this case it doesn’t work as it sould, I just get one track. instead of the 8. I’ve tried to burn the image directly with nero, but I can’t. I’ve also tried foobar to no avail. Ashampoo also. I include the cue sheet here and maybe you can point out to me what is wrong.

PERFORMER “Herbert Von Karajan; Philharmonia Orchestra”
TITLE “Berlioz: Symphonie Fantastique, Le Carnaval Romain, Etc.”
FILE “CDImage.ape” WAVE
TRACK 01 AUDIO
TITLE “Berlioz: Le Carnaval Romain, Op. 9 - Overture”
PERFORMER “Herbert Von Karajan; Philharmonia Orchestra”
INDEX 00 00:00:00
INDEX 01 00:00:32
TRACK 02 AUDIO
TITLE “Berlioz: Le Damnation De Faust, Op. 24 - Marche Hongroise”
PERFORMER “Herbert Von Karajan; Philharmonia Orchestra”
INDEX 00 09:11:47
INDEX 01 09:20:52
TRACK 03 AUDIO
TITLE “Berlioz: Les Troyens - Royal Hunt & Storm”
PERFORMER “Herbert Von Karajan; Philharmonia Orchestra”
INDEX 00 13:36:20
INDEX 01 13:46:17
TRACK 04 AUDIO
TITLE “Berlioz: Symphonie Fantastique, Op. 14 - 1. Reveries-Passions”
PERFORMER “Herbert Von Karajan; Philharmonia Orchestra”
INDEX 00 23:48:05
INDEX 01 23:58:27
TRACK 05 AUDIO
TITLE “Berlioz: Symphonie Fantastique, Op. 14 - 2. Un Bal”
PERFORMER “Herbert Von Karajan; Philharmonia Orchestra”
INDEX 00 38:33:42
INDEX 01 38:33:45
TRACK 06 AUDIO
TITLE “Berlioz: Symphonie Fantastique, Op. 14 - 3. Scene Aux Champs”
PERFORMER “Herbert Von Karajan; Philharmonia Orchestra”
INDEX 00 44:52:60
INDEX 01 44:52:62
TRACK 07 AUDIO
TITLE “Berlioz: Symphonie Fantastique, Op. 14 - 4. Marche Au Supplice”
PERFORMER “Herbert Von Karajan; Philharmonia Orchestra”
INDEX 00 61:30:67
INDEX 01 61:30:70
TRACK 08 AUDIO
TITLE “Berlioz: Symphonie Fantastique, Op. 14 - 5. Songe D’Une Nuit Du Sabbat”
PERFORMER “Herbert Von Karajan; Philharmonia Orchestra”
INDEX 00 66:17:07
INDEX 01 66:17:10

Is [B]FILE “CDImage.ape” WAVE[/B] the problem?

I don’t know TimC. That’s what I’d like to know because I’m a newbie.

Usually cue splitter works for me, this time though I only get track No.3 in the end. I don’t know what the problem is.

:frowning:

As TimC hinted, what happens when you decompress the APE file with Monkey’s Audio to WAV and modify that line in the CUE file to read FILE “CDImage.wav” WAVE?

Well, I understood TImc was giving a hint, but didn’t know what it was. I decompress the ape, get a wav file. With both of them in the same folder, ape and wav I can burn a CD. I don;t wan;t to do it, I want to split the tracks, into individual ape files then into mp3. Maybe the ape-cuesheet are defective because with others I can do it using cue-splitter with no problem.

:frowning:

APE can’t just be split, as far as I know. You’ll have to decode to WAV, split the WAVs and then encode as you wish.

I just happened to come across this on Monkey’s Audio Forum. I didn’t read the whole thing so forgive if it’s not what you are looking for but you should check it out.

Forum

Good Luck!! :slight_smile: