Hulp gevraagd bij cuesheet

vbimport

#1

Ik heb Winoncd 3.8 gedownload, met Winrar uitgepakt,
resultaat een cue en een bin file. Geen probleem. Normaal
gesproken laad ik dan de cuesheet met CDRwin die er
een cd’tje van bakt. Maar nu kreeg ik de volgende error:

"unable to open file: “G\Burn\image2\Winoncd.bin”

Als ik de cuesheet met Notepad open krijg ik het volgende
te zien:

FILE “G:\BURN\IMAGE2\WINONCD.BIN” BINARY
TRACK 01 MODE1/2352
INDEX 01 00:00:00
TRACK 02 AUDIO
PREGAP 00:02:00
INDEX 01 11:53:15

Ik denk dat ‘G’ verwijst naar de schijf waar de cuesheet
en de bin file zich bevinden, maar ik heb helemaal geen
G-schijf of map.
Is er iemand die weet hoe ik dit moet oplossen.
Zelf denk ik aan een aanpassing van de cuesheet, maar ik
weet helaas niet hoe.

Alvast bedankt voor jullie tijd


#2

Volgens mij als je “G:\BURN\IMAGE2” veranderd in de plek waar de image wel staat kan je em gewoon bakken!
Maar wat zeker werkt is als je met ISObuster gewoon de bestanden die in die image staan uitpakt en deze vervolgens met Nero ofzo bakt op een cd’tje!!


#3

Je kunt ook ff die cuesheet editten en van G:\blablalbla :slight_smile: C:\ (of waar die image dan ook staat) maken, dan werkt het truukje ook prima!


#4

Originally posted by Wookie
Volgens mij als je “G:\BURN\IMAGE2” veranderd in de plek waar de image wel staat kan je em gewoon bakken!

Originally posted by Dee-ehn
Je kunt ook ff die cuesheet editten en van G:\blablalbla :slight_smile: C:\ (of waar die image dan ook staat) maken, dan werkt het truukje ook prima!

Volgens mij zei ik dat ook al! :smiley:


#5

Bedankt voor jllie hulp, het is gelukt


#6

waarom zo moeilijk doen mensen ? EDIT naar dit :

FILE “WINONCD.BIN” BINARY
TRACK 01 MODE1/2352
INDEX 01 00:00:00
TRACK 02 AUDIO
PREGAP 00:02:00
INDEX 01 11:53:15

de directory is totaal weg en kan je hem van overal loaden :smiley:


#7

Is ook een mogelijkheid! :wink: