Error mounting image with .CUE to virtual CD ( Daemon tools lite ) Some work....some Don't

vbimport

#1

Hi
I have a vast amount of audio in FLAC with a .cue file for each Cd in individual folders.

So here is a .cue in note pad that DOES work.:clap:

REM GENRE Unknown
REM DATE 1998
REM DISCID 8A0AB40C
REM COMMENT “ExactAudioCopy v0.99pb5”
PERFORMER “Various”
TITLE “Unknown Legends of Rock 'n Roll”
FILE “01 - Smashed Blocked - John’s Children.wav” WAVE
TRACK 01 AUDIO
TITLE “Smashed Blocked”
PERFORMER “John’s Children”
INDEX 01 00:00:00
FILE “02 - Point of No Return - The Music Machine.wav” WAVE
TRACK 02 AUDIO
TITLE “Point of No Return”
PERFORMER “The Music Machine”
INDEX 01 00:00:00
FILE “03 - Clara Bow - Cleaners From Venus.wav” WAVE
TRACK 03 AUDIO
TITLE “Clara Bow”
PERFORMER “Cleaners From Venus”
INDEX 01 00:00:00
FILE “04 - Frozen Laughter - The Rising Storm.wav” WAVE
TRACK 04 AUDIO
TITLE “Frozen Laughter”
PERFORMER “The Rising Storm”
INDEX 01 00:00:00
FILE “05 - A Girl I Knew - The Savage Rose.wav” WAVE
TRACK 05 AUDIO
TITLE “A Girl I Knew”
PERFORMER “The Savage Rose”
INDEX 01 00:00:00
FILE “06 - Frustration - The Mystic Tide.wav” WAVE
TRACK 06 AUDIO
TITLE “Frustration”
PERFORMER “The Mystic Tide”
INDEX 01 00:00:00
FILE “07 - Super Market - Fapardokly.wav” WAVE
TRACK 07 AUDIO
TITLE “Super Market”
PERFORMER “Fapardokly”
INDEX 01 00:00:00
FILE “08 - Sun’s Going Down - The Outsiders.wav” WAVE
TRACK 08 AUDIO
TITLE “Sun’s Going Down”
PERFORMER “The Outsiders”
INDEX 01 00:00:00
FILE “09 - Qualities of Mercy - Penelope Houston.wav” WAVE
TRACK 09 AUDIO
TITLE “Qualities of Mercy”
PERFORMER “Penelope Houston”
INDEX 01 00:00:00
FILE “10 - Ceremonial - Savage Republic.wav” WAVE
TRACK 10 AUDIO
TITLE “Ceremonial”
PERFORMER “Savage Republic”
INDEX 01 00:00:00
FILE “11 - Nothing Man - The Deviants.wav” WAVE
TRACK 11 AUDIO
TITLE “Nothing Man”
PERFORMER “The Deviants”
INDEX 01 00:00:00
FILE “12 - Sankara - Aisha Kandisha’s Jarring Effects.wav” WAVE
TRACK 12 AUDIO
TITLE “Sankara”
PERFORMER “Aisha Kandisha’s Jarring Effects”
INDEX 01 00:00:00

AND HERE is one that does NOT WORK :o What is wrong ?

REM GENRE “Psychedelic Rock”
REM DATE 1984
REM DISCID D90AE910
REM COMMENT “ExactAudioCopy v0.95b4”
PERFORMER “Various”
TITLE “Rubble 1 - The Psychedelic Snarl”
FILE “01 - Wimple Winch - Atmospheres.wav” WAVE
TRACK 01 AUDIO
TITLE “Atmospheres”
PERFORMER “Wimple Winch”
INDEX 01 00:00:00
TRACK 02 AUDIO
TITLE “Faster Than Light”
PERFORMER “The Mirror”
INDEX 00 04:19:08
FILE “02 - The Mirror - Faster Than Light.wav” WAVE
INDEX 01 00:00:00
TRACK 03 AUDIO
TITLE “Woman Of Distinction”
PERFORMER “Caleb”
INDEX 00 02:05:56
FILE “03 - Caleb - Woman Of Distinction.wav” WAVE
INDEX 01 00:00:00
TRACK 04 AUDIO
TITLE “It’s All Over Now”
PERFORMER “Martin Cure & The Peeps”
INDEX 00 02:31:24
FILE “04 - Martin Cure & The Peeps - It’s All Over Now.wav” WAVE
INDEX 01 00:00:00
TRACK 05 AUDIO
TITLE “Always With Him”
PERFORMER “The Living Daylights”
INDEX 00 02:37:30
FILE “05 - The Living Daylights - Always With Him.wav” WAVE
INDEX 01 00:00:00
TRACK 06 AUDIO
TITLE “Never Had A Girl Like You Before”
PERFORMER “The Misunderstood”
INDEX 00 02:37:26
FILE “06 - The Misunderstood - Never Had A Girl Like You Before.wav” WAVE
INDEX 01 00:00:00
TRACK 07 AUDIO
TITLE “Cast A Spell”
PERFORMER “The Open Mind”
INDEX 00 03:02:44
FILE “07 - The Open Mind - Cast A Spell.wav” WAVE
INDEX 01 00:00:00
TRACK 08 AUDIO
TITLE “The Spider And The Fly”
PERFORMER “The Dakotas”
INDEX 00 02:08:45
FILE “08 - The Dakotas - The Spider And The Fly.wav” WAVE
INDEX 01 00:00:00
TRACK 09 AUDIO
TITLE “Rumble On Mersey Square South”
PERFORMER “Wimple Winch”
INDEX 00 03:09:23
FILE “09 - Wimple Winch - Rumble On Mersey Square South.wav” WAVE
INDEX 01 00:00:00
TRACK 10 AUDIO
TITLE “Magic Potion”
PERFORMER “The Open Mind”
INDEX 00 04:25:25
FILE “10 - The Open Mind - Magic Potion.wav” WAVE
INDEX 01 00:00:00
TRACK 11 AUDIO
TITLE “Let’s Live For Today”
PERFORMER “The Living Daylights”
INDEX 00 03:28:68
FILE “11 - The Living Daylights - Let’s Live For Today.wav” WAVE
INDEX 01 00:00:00
TRACK 12 AUDIO
TITLE “I Must Be Mad”
PERFORMER “The Craig”
INDEX 00 02:47:46
FILE “12 - The Craig - I Must Be Mad.wav” WAVE
INDEX 01 00:00:00
TRACK 13 AUDIO
TITLE “I Will”
PERFORMER “Unit 4 + 2”
INDEX 00 02:42:18
FILE “13 - Unit 4 + 2 - I Will.wav” WAVE
INDEX 01 00:00:00
TRACK 14 AUDIO
TITLE “Grey”
PERFORMER “The Hush”
INDEX 00 02:36:45
FILE “14 - The Hush - Grey.wav” WAVE
INDEX 01 00:00:00
TRACK 15 AUDIO
TITLE “Save My Soul”
PERFORMER “Wimple Winch”
INDEX 00 02:25:65
FILE “15 - Wimple Winch - Save My Soul.wav” WAVE
INDEX 01 00:00:00
TRACK 16 AUDIO
TITLE “The Morning After”
PERFORMER “The Mindbenders”
INDEX 00 02:59:61
FILE “16 - The Mindbenders - The Morning After.wav” WAVE
INDEX 01 00:00:00

Any help greatly appreciated


#2

NOTE ABOVE. I have converted the FLAC to .wav with FLAC front end. !


#3

I believe(not sure) the second, “not working” CUE file is a non-compliant one, so perhaps Daemon tools won’t read it…
http://wiki.hydrogenaudio.org/index.php?title=EAC_CUE_Sheets
http://wiki.hydrogenaudio.org/index.php?title=Cuesheet

Maybe try importing the CUE in burrrn instead…
http://www.burrrn.net/


#4

Hi Thanks
Yes the .CUE works fine in burrrn and other media burners/players. The reason I want to mount oi on a virtual disk is so that I can import the audio Cd in iTunes ( without burning a physical copy ) and CDDB (Gracenote) will attach all the relevant ID3 tags to it as it imports to my library.
Any ideas ?
Thanks