Error mounting image with .CUE to (Daemon Tools Pro)

vbimport

#1

I have CUE/FLAC file that i cannot load by Daemon Tools Pro while other can how to correct these CUE/FLAC file?

REM ACCURATERIPID 000195b8-000554a9-1802c503
REM COMMENT "CUETools generated dummy CUE sheet"
PERFORMER "Mark Snow"
TITLE "Mark Snow - The X-Files Theme [EU Single]"
FILE "The X-Files Theme.flac" WAVE
  TRACK 01 AUDIO
    PERFORMER "Mark Snow"
    TITLE "The X-Files Theme (Original Version)"
    INDEX 00 00:00:00
    INDEX 01 00:00:00
  TRACK 02 AUDIO
    PERFORMER "Mark Snow"
    TITLE "The X-Files Theme (Terrestrial Mix)"
    INDEX 00 03:24:15
    INDEX 01 03:25:47
  TRACK 03 AUDIO
    PERFORMER "Mark Snow"
    TITLE "The X-Files Theme (PM Dawn Remix)"
    INDEX 00 07:48:64
    INDEX 01 07:50:10


#2

Try with removing the double index point and rename for all 3 songs their remaining index point to INDEX 01 00:00:00


#3

Found it!
I used CueTools to regenerate Image+CUE and its done! :clap: