Error burning cue

vbimport

#1

I downloaded a bin cue file and I am trying to burn it to a cd. When I go to nero Start Smart and burn image to disk it gives me an error message canot open the file D:\Ny mapp
sz-aip9a.bin but I do not know why it is giving me this error because the bin/cue is on me C: drive. When I click ok on the error mesage it gives me an other error, can not load cue sheet file C: drive. When I use nero burning rom it gives me an other error mesage, it says you have added a single image to an empty compilation would you like to close the compilation and burn the image insted. If i click no it tries to birn just the 1kb cue, if i click yes it gives me the same error as above i am using nero 6.6.0.8. I have burned a lot of bin/cue files with previous versions and had know trouble any help would be great.


#2

the software crashes after i try to burn cue\mp3 files
thanks in advance


#3

What do your CUE sheets look like? Post them using CODE tags.


#4
PERFORMER "VA"
TITLE "DJ Green Lantern Conspiracy Theory Invasion Part II"
REM Generated by CD-Tag 2.20 - http://www.cdtag.com
FILE "201-VA-DJ_Green_Lantern_Conspiracy_Theory_Invasion_Part_II.mp3" MP3
  TRACK 01 AUDIO
    TITLE "Shady Invasion Intro"
    PERFORMER "(No Artist Listed)"
    INDEX 01 00:00:00
  TRACK 02 AUDIO
    TITLE "Invasion"
    PERFORMER "Eminem"
    INDEX 01 02:05:23
  TRACK 03 AUDIO
    TITLE "Freestyle"
    PERFORMER "Benzino"
    INDEX 01 04:33:68
  TRACK 04 AUDIO
    TITLE "The Sauce"
    PERFORMER "Eminem"
    INDEX 01 05:00:73
  TRACK 05 AUDIO
    TITLE "Pull Ya Skirt Up"
    PERFORMER "Benzino"
    INDEX 01 08:35:17
  TRACK 06 AUDIO
    TITLE "Nail In The Coffin"
    PERFORMER "Eminem"
    INDEX 01 12:04:30
  TRACK 07 AUDIO
    TITLE "Welcome To Detroit City"
    PERFORMER "Obie Trice"
    INDEX 01 16:52:06
  TRACK 08 AUDIO
    TITLE "8 Mor Miles"
    PERFORMER "50 Cent And Eminem"
    INDEX 01 20:22:60
  TRACK 09 AUDIO
    TITLE "Srvival Of The Fittest"
    PERFORMER "Mobb Deep"
    INDEX 01 24:05:38
  TRACK 10 AUDIO
    TITLE "Freestyle"
    PERFORMER "Flipmode"
    INDEX 01 26:23:05
  TRACK 11 AUDIO
    TITLE "Youve Been Slain"
    PERFORMER "Obie Trice"
    INDEX 01 29:50:02
  TRACK 12 AUDIO
    TITLE "The Hood"
    PERFORMER "50 Cent And Brooklyn Aftermath"
    INDEX 01 32:50:70
  TRACK 13 AUDIO
    TITLE "Freestyle"
    PERFORMER "Obie Trice"
    INDEX 01 35:20:39
  TRACK 14 AUDIO
    TITLE "Rap Game"
    PERFORMER "Diz And 50 Cent"
    INDEX 01 36:37:56
  TRACK 15 AUDIO
    TITLE "Freestyle"
    PERFORMER "50 Cent And G Unit"
    INDEX 01 41:37:52
  TRACK 16 AUDIO
    TITLE "Freestyle"
    PERFORMER "Golden State Project"
    INDEX 01 44:17:27
  TRACK 17 AUDIO
    TITLE "Freestyle"
    PERFORMER "Joe Beast And The Game (Aftermath)"
    INDEX 01 46:59:03
  TRACK 18 AUDIO
    TITLE "Freestyle"
    PERFORMER "Proof (D12)"
    INDEX 01 50:52:10
  TRACK 19 AUDIO
    TITLE "Freestyle"
    PERFORMER "F T (Goliath)"
    INDEX 01 53:33:19
  TRACK 20 AUDIO
    TITLE "Lose Yourself (Green Lantern Remix)"
    PERFORMER "Eminem"
    INDEX 01 54:45:35
  TRACK 21 AUDIO
    TITLE "Freestyle"
    PERFORMER "Gangstarr"
    INDEX 01 58:37:61
  TRACK 22 AUDIO
    TITLE "The Watcher Pt 2"
    PERFORMER "Jay Z Dr Dre And Rakim"
    INDEX 01 60:08:39
  TRACK 23 AUDIO
    TITLE "Freestyle"
    PERFORMER "Kuniva (D12)"
    INDEX 01 64:37:52
  TRACK 24 AUDIO
    TITLE "Freestyle"
    PERFORMER "50 Cent And G Unit"
    INDEX 01 66:38:29
  TRACK 25 AUDIO
    TITLE "Freestyle"
    PERFORMER "Hom (Goliath)"
    INDEX 01 69:46:15
  TRACK 26 AUDIO
    TITLE "Freestyle"
    PERFORMER "Youn Zee"
    INDEX 01 71:37:42
  TRACK 27 AUDIO
    TITLE "Freestyle"
    PERFORMER "Kardinal Offishial"
    INDEX 01 74:21:17
  TRACK 28 AUDIO
    TITLE "Thug Nation (Green Lantern Remix)"
    PERFORMER "2 Pac And Nas"
    INDEX 01 75:53:71

#5

The first problem, the path is specified in the CUE, and the files are no longer in that path.

Edit the cue with notepad, take the drive letter and path out of the FILE statements (do them all, if it’s a cue with more than one data or audio file), and put the CUE and associated files in the same directory.


#6

this files does not exist really
there is only one big mp3 file
and a nero should know how to split these big file
into these small one which ID3 thags are listed in the cue file


#7

That are not ID3 tags, that is CD-Text.

Decode the MP3 to WAV. You can do it with EAC, dbPowerAmp or foobar2000. Then edit your CUE sheet this way:
-replace the filename (the entry in quotation marks after FILE) with the WAV’s filename
-replace the MP3 bit immediately after with WAVE

Be sure the WAV’s and the CUE sheet’s filenames match - except for their respective extensions, of course- and that they are in the same directory.

Happy burning.


#8

I am also having similiar prob -

Got a dj set and cue file for it, I opened the cue file with Burn Image on Nero and it says -

Cannot open the file C:\ … mp3

Press OK and this comes up -

An error while loading the cue sheet file ‘C:\ … .cue’.(Line 3).

Can anyone help, this is driving me nuts!!! I have both the cue file and mp3 in same folder but still dont work.

Tryed the above and converted to WAVE but still same thing happens.


#9

This is because the file is not an “Image” file.
It is an .MP3 and a .CUE file.

Nero will not burn this file, or at least I have be unsuccessful in getting Nero to burn an .MP3 from a .CUE sheet.

I normally use the freeware [B]EAC[/B] (Exact Audio Copy) or the audio only shareware application called [B]Feurio!®[/B].


#10

It is possible.
Have tryed it with Nero, Wincdr and Feurio. They all return the same error at line 3 message.

Some people have said it’s because the Bin file is missing, but how do I fix that??


#11

Open the cue file in Notepad & post it back here.


#12

YES! Sussed it!
MP3 needs to be WAVE.
WAVE file and CUE file must not have WAVE or CUE in file name.

Happy!