Cue sheets in Nero for a mix CD (splitting tracks)

Hi, Im new to this forum, and just was just wondering if anyone could give me a hand with using a cue sheet in nero, im a beginner with it so explain it simply lol!!

Ive made a cue sheet and it is as follows…

TRACK 01 AUDIO
INDEX 01 00:00:00
TRACK 02 AUDIO
INDEX 01 01:42:35
TRACK 03 AUDIO
INDEX 01 04:01:60
TRACK 04 AUDIO
INDEX 01 08:08:10
TRACK 05 AUDIO
INDEX 01 12:42:56
TRACK 06 AUDIO
INDEX 01 18:23:50
TRACK 07 AUDIO
INDEX 01 24:04:66
TRACK 08 AUDIO
INDEX 01 29:20:16
TRACK 09 AUDIO
INDEX 01 33:30:74
TRACK 10 AUDIO
INDEX 01 38:45:38
TRACK 11 AUDIO
INDEX 01 42:55:35
TRACK 12 AUDIO
INDEX 01 46:06:21
TRACK 13 AUDIO
INDEX 01 51:09:55
TRACK 14 AUDIO
INDEX 01 57:34:01
TRACK 15 AUDIO
INDEX 01 63:06:34
TRACK 16 AUDIO
INDEX 01 69:13:62
TRACK 17 AUDIO
INDEX 01 72:20:51

is that right?
If so can someone give me a step by step guide to burning the CD with the tracks split using this cue sheet, right from scratch cos i haven’t really got a clue wot im doing lol.
Also do you have to save it as a ‘.cue’ file? if so how? cos it’s in notepad atm, which obviously saves as ‘.txt’!!

If someone can give me some help that’d be greatly appreciated thanks!! :slight_smile:

its ok ive done it now!!