Cue Sheet Probleem

vbimport

#1

Ik zit met een probleem, ik had Jump 2001 - Part 2 gedownload maar de cue sheet is fout.
Ik had de cue sheet geopent en ik zag dat ie naar een *.wav was gelinked. Nou heb ik um goed gezet. ik heb WAVE naar Binary gedaan. Zo ziet de cue sheet er nu uit:

FILE “00_VA_-_Jump_2001_Part_2-KTMP3.MP3” BINARY
TRACK 01 AUDIO
INDEX 01 00:00:00
TRACK 02 AUDIO
INDEX 01 00:30:65
TRACK 03 AUDIO
INDEX 01 03:53:51
TRACK 04 AUDIO
INDEX 01 06:35:70
TRACK 05 AUDIO
INDEX 01 09:31:70
TRACK 06 AUDIO
INDEX 01 12:14:34
TRACK 07 AUDIO
INDEX 01 16:04:55
TRACK 08 AUDIO
INDEX 01 19:34:72
TRACK 09 AUDIO
INDEX 01 20:58:12
TRACK 10 AUDIO
INDEX 01 22:36:70
TRACK 11 AUDIO
INDEX 01 25:36:72
TRACK 12 AUDIO
INDEX 01 27:55:16
TRACK 13 AUDIO
INDEX 01 31:22:37
TRACK 14 AUDIO
INDEX 01 33:13:07
TRACK 15 AUDIO
INDEX 01 35:45:17
TRACK 16 AUDIO
INDEX 01 39:12:67
TRACK 17 AUDIO
INDEX 01 41:17:37
TRACK 18 AUDIO
INDEX 01 44:31:11
TRACK 19 AUDIO
INDEX 01 47:17:09
TRACK 20 AUDIO
INDEX 01 49:35:25
TRACK 21 AUDIO
INDEX 01 52:29:28

Het bovenste stuk heb ik dus veranderd. Dat zag er zo uit:

FILE “Jump_2001.wav” WAVE

Zoiets was het. Het was een wav en er stond achter WAVE. En dan staan er onder weer die track nummers.
Iemand die enig idee heeft? Plz reply :slight_smile:

Grtz,
RMX


#2

Wat is nou precies het probleem?


#3

Oh wacht, ik zie het al geloof ik.

Ik weet niet zeker maar je hebt een .bin en een .cue bestand? Je moet je .cue laten verwijzen naar je bin bestand (dus bijvoorbeeld:FILE “c:\download\jouwmap\00_VA_-_Jump_2001_Part_2-KTMP3.bin” BINARY )

Misschien moet je binary naar wave veranderen maar ik zou het eerst gewoon op binary proberen


#4

die mp3 omvormen naar wav als dat nog niet gebeurd is

FILE “00_VA_-_Jump_2001_Part_2-KTMP3.MP3” BINARY

als je wav dan bvb jump.wav noemt krijg je

FILE “jump.WAV” BINARY

load je de cue sheet, dan brand je hem met cdrwin, die tracks die daar onder staan dienen gewoon, om de songs te scheiden van elkaar nadat de cd gebrand is terwijl het nu 1 grote mix cd is :wink:


#5

Het hele probleem is dat je FILE “00_VA_-_Jump_2001_Part_2-KTMP3.MP3” BINARY

FILE “00_VA_-_Jump_2001_Part_2-KTMP3.MP3” MP3
moet maken en fikken meer niet
lees in cdrwin(als je die gebruikt)de help file onder advanced topics en How to write a CUE SHEET file
staat een hele uitleg hoe je zelf cue files kan schrijven en alle info die je nodig hebt…

Mocht je problemen hebben met de naam kopieer en plak de naam van de mp3 tussen de file"naam.MP3" mp3 in en branden…


#6

misschien dat je ze bij software questions beetje meer kunne helpen :wink:


#7

RDJ heeft gelijk.
Zo doe ik dat ook.


#8

Originally posted by RMX
[B]Ik zit met een probleem, ik had Jump 2001 - Part 2 gedownload maar de cue sheet is fout.
Ik had de cue sheet geopent en ik zag dat ie naar een *.wav was gelinked. Nou heb ik um goed gezet. ik heb WAVE naar Binary gedaan. Zo ziet de cue sheet er nu uit:

Grtz,
RMX [/B]

========================
Ik had net hetzelfde probleem…
Gewoon de mp3 converteren naar wav en uw probleem is opgelost!
Je kan hem dan zo burnen met cdrwin !!


#9

Je hoeft nog niet eens de MP3 naar WAVE om te vormen

Gewoon dit in de cue veranderen.
FILE “00_VA_-_Jump_2001_Part_2-KTMP3.MP3” MP3

Van achter MP3 zetten dus !!!

(Ik heb CDRWIN 3.8d)


#10

Yep heeft geholpen thnx! ik had naar een andere cue file gekeken daar stond achter BINARY en het was ook een MP3. najah maar het werkt Thnx!


#11

je had natuurlijk ook de iso uit kunnen pakken met ISObuster! :wink:


#12

of een andere Binchunker! :wink:


#13

Originally posted by -=HeadLesS=-
of een andere Binchunker! :wink:

ISObuster roeleert toch harder!! :wink:


#14

Uhm ja kan als het een ISO / BIN was wel ja :slight_smile:


#15

ISObuster kan volgens mij alle formaten aan! Ook die van nero of ccd bijvoorbeeld hoor! :wink:


#16

Ja, maar een WAV of MP3 file niet :wink: