Cue File Problem

vbimport

#1

Hi

Wasnt sure where to post this but here goes.

I downloaded an MP3 file that comes with a cue file, but cant get the cue file to load.
I have used cue files plenty of times, but cant seem to get this one to load.
It comes up with the error:

Unable to find the source file audio specified in CUE file

I have both files in the same folder aswell.

Any help would be appreciated.

Buzz


#2

What program are you using to load the .cue?


#3

Edit the .cue file, it is like a txt file with time marks and paths.


#4

Hi

It wont work in any program, I’m using cue splitter. But cant load it into Burrrn or cuemaster.
I dont know what to edit the .cue file to, to get it to work.

Cheers


#5

Open it with Notepad. Most likely it’s just the file name that has changed and must be corrected.


#6

The file name is:
02-arnold_jarvis-love_and_life__mixed_by_frankie_feliciano
and thats what the .cue file is aswell when opened with notepad

PERFORMER: "02-arnold_jarvis-love_and_life__mixed_by_frankie_feliciano"
TITLE: “02-arnold_jarvis-love_and_life__mixed_by_frankie_feliciano”

TRACK 01 AUDIO
TITLE "And I Love You"
PERFORMER "Arnold Jarvis"
INDEX 01 00:00:00
TRACK 02 AUDIO
TITLE "Inspiration"
PERFORMER "Arnold Jarvis"
INDEX 01 04:11:46
TRACK 03 AUDIO
TITLE "Music Is My Friend"
PERFORMER "Arnold Jarvis"
INDEX 01 08:51:16
TRACK 04 AUDIO
TITLE "You’re The Best"
PERFORMER "Arnold Jarvis"
INDEX 01 13:26:71
TRACK 05 AUDIO
TITLE "Love Of My Life (Tribat Mix)"
PERFORMER "Arnold Jarvis"
INDEX 01 18:47:32
TRACK 06 AUDIO
TITLE "Take Good Care Of Me (Franck Rogers Mix)"
PERFORMER "Arnold Jarvis"
INDEX 01 21:50:22
TRACK 07 AUDIO
TITLE "If I Stay"
PERFORMER "Arnold Jarvis"
INDEX 01 27:09:46
TRACK 08 AUDIO
TITLE "Feelin’ It"
PERFORMER "Arnold Jarvis"
INDEX 01 31:04:40
TRACK 09 AUDIO
TITLE "Life Goes On"
PERFORMER "Arnold Jarvis"
INDEX 01 34:51:27
TRACK 10 AUDIO
TITLE "Justified Love (Dub)"
PERFORMER "Arnold Jarvis"
INDEX 01 39:16:04
TRACK 11 AUDIO
TITLE "Spread Love"
PERFORMER "Arnold Jarvis"
INDEX 01 43:02:73

So what do I change?


#7

Seems like the “FILE” reference is missing completely. Compare to the example found here: http://en.wikipedia.org/wiki/Cue_sheet

TITLE "Live in Berlin, 1998"
PERFORMER “Faithless”
[B]FILE “faithless - live in berlin.mp3” MP3[/B]


#8

Hi

I’ve changed it to this, but it still wont load

PERFORMER: "Arnold Jarvis"
TITLE: "Love & Life CD2"
FILE: “02-arnold_jarvis-love_and_life__mixed_by_frankie_feliciano.mp3” MP3

Can you see anything wrong?

update: I’ve managed to get it to load into Burrrn but nothing else.


#9

The colons ( : ) don’t belong there I think. :slight_smile:


#10

Thank you so much Cressida

Sorted now!!!


#11

You see, it’s easy. Even i can do it. :wink: