.CUE file maken

vbimport

#1

Ik heb een cue file gemaakt van een mix die 50 nummers lang is.
Nu geeft hij een foutmelding als ik hem probeer te branden.

Dit is de CUE file:

PERFORMER “Fear FM”
TITLE “Top 50 van 2007”
FILE “FearFM_Hardstyle_Top_50_of_2007.mp3” MP3
TRACK 50 AUDIO
TITLE “Shout Out (Donkey Rollers Remix)”
PERFORMER “Showtek ft MC DV8”
INDEX 01 00:00:00
TRACK 49 AUDIO
TITLE “Life’z A Bitch”
PERFORMER “Wildstylez”
INDEX 01 05:02:00
TRACK 48 AUDIO
TITLE “Still Here”
PERFORMER “Alphaverb”
INDEX 01 07:31:00
TRACK 47 AUDIO
TITLE “Scar Ur Face”
PERFORMER “The Prophet vs Headhunterz”
INDEX 01 09:33:00
TRACK 46 AUDIO
TITLE “F.M.W. (Straight In The Ass Mix)”
PERFORMER “Brainkicker”
INDEX 01 12:30:00
TRACK 45 AUDIO
TITLE “Nize & Cloze”
PERFORMER “JDX”
INDEX 01 15:17:00
TRACK 44 AUDIO
TITLE “Evolution Leaps FWD”
PERFORMER “Clive King feat Xzellar”
INDEX 01 19:40:00
TRACK 43 AUDIO
TITLE “Control The Mind (Abject Remix)”
PERFORMER “Zanza Labs”
INDEX 01 21:57:00
TRACK 42 AUDIO
TITLE “We Be Kickin’ Bass”
PERFORMER “D-Block & S-Te-Fan”
INDEX 01 25:31:00
TRACK 41 AUDIO
TITLE “Scantraxx Rootz”
PERFORMER “Headhunterz vs Abject”
INDEX 01 28:21:00
TRACK 40 AUDIO
TITLE “Reactor”
PERFORMER “Davide Sonar”
INDEX 01 31:46:00
TRACK 39 AUDIO
TITLE “Marlboro Man”
PERFORMER “Noisecontrollers”
INDEX 01 36:07:00
TRACK 38 AUDIO
TITLE “The Power Of The Mind”
PERFORMER “Headhunterz”
INDEX 01 39:29:00
TRACK 37 AUDIO
TITLE “In Our Memories”
PERFORMER “Abject”
INDEX 01 43:30:00
TRACK 36 AUDIO
TITLE “Alright (KAT & Zatox mix)”
PERFORMER “KAT meets Gerardo Roschini”
INDEX 01 47:16:00
TRACK 35 AUDIO
TITLE “Volt”
PERFORMER “Zany”
INDEX 01 50:19:00
TRACK 34 AUDIO
TITLE “Nero”
PERFORMER “Dark Oscillators”
INDEX 01 53:21:00
TRACK 33 AUDIO
TITLE “Maneater”
PERFORMER “Outsiders”
INDEX 01 56:45:00
TRACK 32 AUDIO
TITLE “Les Drums (TBY Remix)”
PERFORMER “2 Best Enemies”
INDEX 01 59:48:00
TRACK 31 AUDIO
TITLE “Get Wasted”
PERFORMER “Brennan Heart vs JDX”
INDEX 01 63:00:00
TRACK 30 AUDIO
TITLE “Blckr Thn Blck (The Prophet & JDX Mix)”
PERFORMER “Black Identity”
INDEX 01 65:56:00
TRACK 29 AUDIO
TITLE “Waiting For”
PERFORMER “Isaac”
INDEX 01 69:38:00
TRACK 28 AUDIO
TITLE “Can’t Hold Us Down”
PERFORMER “Deepack & Charly Lownoise”
INDEX 01 74:12:00
TRACK 27 AUDIO
TITLE “Atrocity”
PERFORMER “Donkey Rollers”
INDEX 01 78:00:00
TRACK 26 AUDIO
TITLE “Superdisco (Technoboy Remix)”
PERFORMER “The KGBs”
INDEX 01 79:54:00
TRACK 25 AUDIO
TITLE “K.Y.H.U.”
PERFORMER “Wildstylez”
INDEX 01 82:00:00
TRACK 24 AUDIO
TITLE “A Feeling (Citizen Remix)”
PERFORMER “The Raiders”
INDEX 01 84:26:00
TRACK 23 AUDIO
TITLE “Stampuhh (The Beholder & Max Enforcer Remix)”
PERFORMER “The Prophet vs Deepack”
INDEX 01 87:42:00
TRACK 22 AUDIO
TITLE “Elements”
PERFORMER “Nagoom”
INDEX 01 91:53:00
TRACK 21 AUDIO
TITLE “Digiwave”
PERFORMER “Headhunterz”
INDEX 01 96:26:00
TRACK 20 AUDIO
TITLE “Aliens”
PERFORMER “Noisecontrollers”
INDEX 01 99:00:00
TRACK 19 AUDIO
TITLE “Crystal”
PERFORMER “Southstylers”
INDEX 01 101:30:00
TRACK 18 AUDIO
TITLE “End Of My Existence”
PERFORMER “Headhunterz vs Abject”
INDEX 01 104:59:00
TRACK 17 AUDIO
TITLE “The 4 Elementz”
PERFORMER “A-lusion”
INDEX 01 108:07:00
TRACK 16 AUDIO
TITLE “Vita”
PERFORMER “Technoboy”
INDEX 01 111:32:00
TRACK 15 AUDIO
TITLE “Gold Medley With Strange”
PERFORMER “Tat & Zat”
INDEX 01 115:50:00
TRACK 14 AUDIO
TITLE “Ride With Uz!”
PERFORMER “D-Block & S-Te-Fan”
INDEX 01 118:03:00
TRACK 13 AUDIO
TITLE “Natte Asbak”
PERFORMER “Chickz On Fire”
INDEX 01 122:39:00
TRACK 12 AUDIO
TITLE “I Shot The Blender (Technoboy Remix)”
PERFORMER “Hunter”
INDEX 01 125:39:00
TRACK 11 AUDIO
TITLE “One Blade”
PERFORMER “Brennan Heart aka Bladmasterz”
INDEX 01 128:51:00
TRACK 10 AUDIO
TITLE “Words From The Gang (D-Block & S-Te-Fan Remix)”
PERFORMER “Coone”
INDEX 01 132:01:00
TRACK 09 AUDIO
TITLE “Forever As One”
PERFORMER “Headhunterz”
INDEX 01 135:49:00
TRACK 08 AUDIO
TITLE “Pounding Senses (Deeper Inside Mix)”
PERFORMER “Southstylers”
INDEX 01 139:51:00
TRACK 07 AUDIO
TITLE “Fother Mucker”
PERFORMER “Wild Motherfuckers”
INDEX 01 141:28:00
TRACK 06 AUDIO
TITLE “F.T.S.”
PERFORMER “Showtek”
INDEX 01 145:00:00
TRACK 05 AUDIO
TITLE “Her Voice (Super Bass Mix)”
PERFORMER “Builder”
INDEX 01 147:31:00
TRACK 04 AUDIO
TITLE “Rock Civilization”
PERFORMER “Headhunterz”
INDEX 01 150:03:00
TRACK 03 AUDIO
TITLE “Crump”
PERFORMER “Noisecontrollers”
INDEX 01 153:12:00
TRACK 02 AUDIO
TITLE “Lockdown”
PERFORMER “Scope DJ”
INDEX 01 155:12:00
TRACK 01 AUDIO
TITLE “Nothing Else Matters”
PERFORMER “Zany & DV8”
INDEX 01 157:49:00

De foutmelding is, dat die regel 131 niet kan uitlezen.
Regel 131: INDEX 01 101:30:00

Nu heb ik dus een vermoeden dat hij niet verder gaat dan 100 minuten.
hoe moet ik dit oplossen?


#2

het audio cd formaat kan ook niet meer dan 99 minuten aan bij mijn weten, dus de enige oplossing is niet meer dan 99 minuten muziek er op te zetten.