CUE file en WAV file op cd branden?

vbimport

#1

geachte medefreakers

ik zit met een klein probleempje
ik heb op het internet een mp3 file gedownload
1 mp3 file = 92.5mb groot en duurt ±67.56min

ik maak eerst van die mp3 een wave file
en onder dezelfde map zet ik die cue file
ik start het programma cdrwin3.8 op en laadt de cue file
krijg ik de foutmelding
fout in regel 3 van cue file

ik open de cue file
en de eerste regels zijn dit :
filenaam van cue file =test.cue

PERFORMER “VA”
TITLE “Mix Warriors 3”
FILE “IMAGE” WAVE
TRACK 01 AUDIO
TITLE “mission to mars”
PERFORMER “mix warriors 3”
INDEX 01 00:00:00
TRACK 02 AUDIO
TITLE “super”
PERFORMER “gigi d’agostino & albertino”
INDEX 01 01:19:28
TRACK 03 AUDIO
TITLE “black magic”
PERFORMER “d-devils”
INDEX 01 02:30:42

1.) hoe kan ik die wave file nu branden op een cd’tje zodat ik meerdere audiotracks heb op mijn cd’tje ?
2.) of wie kan me eens vertellen wat ik misschien mis doe ?
3.) het is toch mogelijk op zo een manier ?

p.s. heeft iemand de cue van klubbheads update 2.0 ?


#2

ben net ff de searchfunctie in gedoken omdat ik wist dat er een gelijknamige topic hier ooit behandeld is geweest

daarom raad ik je aan die ff te lezen


#3

Als je mp3 files hebt en in de cue staat WAV gewoon even veranderen naar Mp3 en gaan,ik zelf doet dit erg vaak.
Ik heb hier al meerder keren over cue files geposted incl uitleg even search runnen dus… en anders kijken in de help file van cdrwin : advanced topics/how to write a cue sheet/examples.

En geef maar een email adres ik heb beiden cue files voor de desire updated 2.0 mixed by clubheads snd release.


#4

je vindt zijn email in je PM box


#5

Volgens mij kan je em met Nero gewoon fikken terwijl ie nog mp3 is!
Dan moet je gewoon die cue ff veranderen, nm dat woordje WAVE in MP3 veranderen in die cue file dus. En dan die cue openen in Nero terwijl die mp3 in dezelfde dir staat!

Give it a try! :wink:


#6

ik heb in de cue file de naam “wac” in “mp3” veranderd

ik probeerde via nero burning
krijg ik de foutmelding
“fout in cue file regel 7”

regel 7 = INDEX 01 00:00:00

please help me


#7

Moet die INDEX 01 00:00:00 niet iets met 2 seconden zijn ipv allemaal 0’tjes?
Die 2 second-gap voor de eerste track? Probeer het eens met INDEX 01 00:02:00.

Succes!


#8

Probeer hem eens met cdrwin ik brand al mijn cue` audio met cdrwin 3.8a tot nu to zonder problemen…


#9

Wannes ( emm die cd is aanééngemixt dus 2 sezc zijn overbodig)
cdrwin 3.8 heb ik al geprobeerd maar ook niks
dammned


#10

ok dan gaan we het proberen anders op telossen zoals ik het nu ziet foutje van de cue scheet schijver…

track 7 heeft dus een 00 in zijn index kijk nu naar de naar track 8 daar staat weer gewoon de tijd in gevult bij de index?
zo ja noteer de tijd en luister even naar de mix de plaat tussen de tijd van track 6 en 8 is dus track 7 noteer hier de tijd van en vul dat in bij track 7 die nu 00 in zijn tijd frame heeft snap je?

voorbeeld :

Track 6 : INDEX 01 01:19:28
Track 7 : INDEX 01 00:00:00
Track 8 : INDEX 01 04:20:12

dan luister je vanag 1:19:28 de mix tot de plaat wordt gemixed naar track 7 Deze tijd noteer je en vul je in op track 7.

:wink:

Laat even weten hoe het afloop ok?


#11

hoe het afgelopen is ??
kei goed zelfs
ik ben eens naar die vorige topic hierover gaan zoeken
en een simpel programma genaamd musiccutter
laadt je de cue in en de mp3
en dat programma doet het werk

maar toch allemaal zéér hartelijk bedankt
RDJ, Wannes, Wookie & Mattel007
thx alot :slight_smile:


#12

Originally posted by carlo vaesen
Wannes ( emm die cd is aanééngemixt dus 2 sezc zijn overbodig)

Das nie helemaal waar wat je nu zegt! Volgens mij heeft de 1e track ALTIJD aan het begin een 2sec-gab! Probeer maar is losse nrs met Nero te fikken en dan van alle tracks de 2 secs af te halen! Gaat ie gelijk zeiken over de 1e track! :wink:


#13

hmm sorry dat ik pas zo laat op reageer maar:

[b]
ik maak eerst van die mp3 een wave file
en onder dezelfde map zet ik die cue file
ik start het programma cdrwin3.8 op en laadt de cue file
krijg ik de foutmelding
fout in regel 3 van cue file

PERFORMER “VA”
TITLE “Mix Warriors 3”
FILE “IMAGE” WAVE
TRACK 01 AUDIO
TITLE “mission to mars”
PERFORMER “mix warriors 3”
INDEX 01 00:00:00
TRACK 02 AUDIO
TITLE “super”
PERFORMER “gigi d’agostino & albertino”
INDEX 01 01:19:28
TRACK 03 AUDIO
TITLE “black magic”
PERFORMER “d-devils”
INDEX 01 02:30:42

1.) hoe kan ik die wave file nu branden op een cd’tje zodat ik meerdere audiotracks heb op mijn cd’tje ?
2.) of wie kan me eens vertellen wat ik misschien mis doe ?
3.) het is toch mogelijk op zo een manier ?
[/B]

Als we nu eerst eens kijken naar de foutmelding die hij geeft wat dus zegt error in line 3 dus kijken we eerst naar Line 3

FILE "IMAGE" WAVE

hier zien we dus dat cdrwin het bestand IMAGE zoekt maar ik had al begrepen dat je de MP3 om had gezet in WAV. Wat teneerste alfout is aan deze regel is dus dat je waarschijnlijk geen bestand hebt met de naam IMAGE (en zonder extensie!!!). Nu ga ik er even vanuit dat je de WAV file had genoemd MIX.WAV. Je had nu dus de regel 3 in dit moeten veranderen:

FILE "MIX.WAVE" WAVE

Aangezien dat ik niet meer van de cue kan zien moet ik dus nu vanuit gaan dat de cue voor de rest goed is.

O ja CDRwin doet uitzichzelf als je brander geen CDTEXT ondersteund de text weglaten onder het branden maar als je brander het wel ondersteund dan kan het weleens voorkomen als je de CD in een oudere CD speler stopt hij de CD niet altijd kan initaliseren.


#14

ondertussen was het gelukt met een audioprogramma
genaamd musiccutter

maar zeer bedankt voor de wijze uitleg
'k zal het in achterhoods houden
thx alot