Can't open a cue sheet

vbimport

#1

Dear friends,

I’m new in this forum. Maybe someone can help me.
I’m trying to make a CD from a .cue sheet and a .ape image files, but Nero shows the following message:

An error occurred while loading the cue sheet file
‘C:\Liszt\Vol 32 - Schubert Transcriptions - II (3CD)\CD2.cue’.
(Line 1).

The contents of the cue sheet file are:

PERFORMER “Leslie Howard”
TITLE “Liszt: The Schubert Transcriptions - II (Vol.32, CD2)”
FILE “CD2.ape” WAVE
TRACK 01 AUDIO
TITLE “SCHWANENGESANG - VIERZEHN LIEDER VON FRANZ SCHUBERT, S560 (1838/9): 1. Die S…”
PERFORMER “Leslie Howard”
INDEX 00 00:00:00
INDEX 01 00:00:33
TRACK 02 AUDIO
TITLE " 2. Das Fischermädchen"
PERFORMER “Leslie Howard”
INDEX 01 02:47:28
TRACK 03 AUDIO
TITLE " 3. Aufenthalt"
PERFORMER “Leslie Howard”
INDEX 01 06:36:15
TRACK 04 AUDIO
TITLE " 4. Am Meer"
PERFORMER “Leslie Howard”
INDEX 01 10:12:30
TRACK 05 AUDIO
TITLE " 5. Abschied"
PERFORMER “Leslie Howard”
INDEX 01 15:05:55
TRACK 06 AUDIO
TITLE " 6. In der Ferne"
PERFORMER “Leslie Howard”
INDEX 01 20:25:38
TRACK 07 AUDIO
TITLE " 7. Ständchen ‘Leise flehen’ (second version)"
PERFORMER “Leslie Howard”
INDEX 01 29:01:28
TRACK 08 AUDIO
TITLE " 8. Ihr Bild - "
PERFORMER “Leslie Howard”
INDEX 01 35:30:58
TRACK 09 AUDIO
TITLE " 9. Fruhlingssehnsucht"
PERFORMER “Leslie Howard”
INDEX 01 38:24:20
TRACK 10 AUDIO
TITLE " 10. Liebesbotschaft"
PERFORMER “Leslie Howard”
INDEX 01 40:54:53
TRACK 11 AUDIO
TITLE " 11. Der Atlas"
PERFORMER “Leslie Howard”
INDEX 01 43:59:13
TRACK 12 AUDIO
TITLE " 12. Der Doppelganger"
PERFORMER “Leslie Howard”
INDEX 01 46:55:33
TRACK 13 AUDIO
TITLE " 13. Die Taubenpost"
PERFORMER “Leslie Howard”
INDEX 01 51:32:68
TRACK 14 AUDIO
TITLE " 14. Kriegers Ahnung"
PERFORMER “Leslie Howard”
INDEX 01 57:03:65
TRACK 15 AUDIO
TITLE “Fruhlingsglaube, S557c (first version)”
PERFORMER “Leslie Howard”
INDEX 00 64:16:41
INDEX 01 64:21:03
TRACK 16 AUDIO
TITLE “Marche hongroise, S425/2v (‘Troisieme Edition’, 1879)”
PERFORMER “Leslie Howard”
INDEX 00 68:11:50
INDEX 01 68:14:40

And, yes, there is a CD2.ape file in the same folder.
I have downloaded ImgBurn and it didn’t work as well.
Maybe I don’t know how to handle ImgBurn yet.

If there is someone who can help me, I’d be very grateful.


#2

What error message does ImgBurn throw up when you load the CUE file in Write mode?

Chances are that you just need to install an APE DirectShow filter so that your system is then capable of decoding the file.

http://www.free-codecs.com/download/RadLight_APE_DirectShow_Filter.htm


#3

I’ve never known Nero to support cue sheets.

Burrrn is a free audio burning application that supports cue sheets and the .ape format.

Hopefully the cue sheet was properly written.


#4

I second the Burrrn suggestion. It’s worth a shot. :slight_smile:


#5

One suggestion is to decompress the ape file first and then open the cuesheet in notepad and change “cd2.ape” to “cd2.wav” and then burn with your software.


#6

Thanks, Lightning UK! I have downloaded the RadLight APE DirectShow Filter and it worked with ImgBurn!
Thanks to all you guys for your suggestions.