Cant burn cue sheet with nerolinux

vbimport

#1

cant burn cue sheets like this one

01_va_-_explosive_car_tuning_7-ktmp3.cue

when opened in editor shows …

PERFORMER “VA”
TITLE “Explosive Car Tuning 7”
FILE “01_VA_-_Explosive_Car_Tuning_7-KTMP3.mp3” MP3
TRACK 01 AUDIO
TITLE “the final countdown (dj marcky remix)”
PERFORMER “dj furax vs redshark”
FLAGS DCP
INDEX 01 00:00:00
TRACK 02 AUDIO
TITLE “hs cops (jump mix)”
PERFORMER “max b grant”
FLAGS DCP
INDEX 01 04:51:41
TRACK 03 AUDIO
TITLE “punk cake (antonio & cristiano remix)”
PERFORMER “the kgb’s”
FLAGS DCP
INDEX 01 08:03:54
TRACK 04 AUDIO
TITLE “push it”
PERFORMER “pascal rolay”
FLAGS DCP
INDEX 01 12:03:50
TRACK 05 AUDIO
TITLE “symphony of bass (dj greg c remix)”
PERFORMER “the creator”
FLAGS DCP
INDEX 01 14:03:45
TRACK 06 AUDIO
TITLE “the dream killer”
PERFORMER “simbioze feat dj seb b”
FLAGS DCP
INDEX 01 19:19:55
TRACK 07 AUDIO
TITLE “keep on jumping”
PERFORMER “noizer & dr paddo”
FLAGS DCP
INDEX 01 24:32:50
TRACK 08 AUDIO
TITLE “trance fusion”
PERFORMER “furious trax”
FLAGS DCP
INDEX 01 28:33:50
TRACK 09 AUDIO
TITLE “unhappy song (jumpstyle mix)”
PERFORMER “dj millo & dj bony”
FLAGS DCP
INDEX 01 34:37:22
TRACK 10 AUDIO
TITLE “sex (ruthless & vorwerk remix)”
PERFORMER “pavo & zany”
FLAGS DCP
INDEX 01 39:53:70
TRACK 11 AUDIO
TITLE “rondo”
PERFORMER “secret phunk”
FLAGS DCP
INDEX 01 44:57:20
TRACK 12 AUDIO
TITLE “type face”
PERFORMER “dj mystery”
FLAGS DCP
INDEX 01 50:02:30
TRACK 13 AUDIO
TITLE “shiney discoballs”
PERFORMER “dj syro”
FLAGS DCP
INDEX 01 55:29:00
TRACK 14 AUDIO
TITLE “immeasurably”
PERFORMER “donkey rollers”
FLAGS DCP
INDEX 01 61:28:27
TRACK 15 AUDIO
TITLE “trying task”
PERFORMER “animal project”
FLAGS DCP
INDEX 01 65:18:00

please help … how do i burn these things on my suse 9.2 machine ?

Best Regards whizzie


#2

I tried this also, but it’s no go under nerolinux :frowning:


#3

uhhh i know cdrwin sheets dont work under nero linux … but how do i burn them on another way on my suse 9.2 (other software ? or something ) cuz i aint got windows anymore


#4

You COULD use fireburner. It has the “best” support for .cue files on linux. But it’s not 100% too