Burning .cue file/.mp3 file as audio cd?

Hello everyone this my first time posting here.

here is my question:

I have one large mp3 file that came with a .cue file. Someone told
me that i could burn both files and the cue file would create tracks for the mp3 file. I tried burning with nero, using the audio option, but it would not take the cue file. I tried using the image option, but it would load the cue file, but always gets an error saying it cannot find the file, error on line 3. I checked out the file
and path to the mp3 file, has not path in it, and it looks like it spelled correctly. I’m using nero 6.0. If anyone can help, I would really appreciate it. I can post the contents of .cue file, if needed.

thanks,

cutta

please, post the cuesheet.

anyway, you can use better programs than Nero to do that.

Feurio CD-Manager -> Project -> create project from cuesheet-file

Unlike Nero, you can play and edit the tracks before burning CUE file.
And it has better warning of errors.

PERFORMER “clash of the titans”
TITLE “black kat side”
FILE “01-black_kat_vs_killamanjaro-black_kat_part-rks.mp3” MP3
TRACK 01 AUDIO
TITLE “Track01”
PERFORMER “clash of the titans”
INDEX 01 00:00:00
TRACK 02 AUDIO
TITLE “Track02”
PERFORMER “clash of the titans”
INDEX 01 01:25:04
TRACK 03 AUDIO
TITLE “Track03”
PERFORMER “clash of the titans”
INDEX 01 02:08:05
TRACK 04 AUDIO
TITLE “Track04”
PERFORMER “clash of the titans”
INDEX 01 02:52:61
TRACK 05 AUDIO
TITLE “Track05”
PERFORMER “clash of the titans”
INDEX 01 03:36:21
TRACK 06 AUDIO
TITLE “Track06”
PERFORMER “clash of the titans”
INDEX 01 04:01:50
TRACK 07 AUDIO
TITLE “Track07”
PERFORMER “clash of the titans”
INDEX 01 04:28:72
TRACK 08 AUDIO
TITLE “Track08”
PERFORMER “clash of the titans”
INDEX 01 05:27:49
TRACK 09 AUDIO
TITLE “Track09”
PERFORMER “clash of the titans”
INDEX 01 06:08:63
TRACK 10 AUDIO
TITLE “Track10”
PERFORMER “clash of the titans”
INDEX 01 06:52:54
TRACK 11 AUDIO
TITLE “Track11”
PERFORMER “clash of the titans”
INDEX 01 07:31:61
TRACK 12 AUDIO
TITLE “Track12”
PERFORMER “clash of the titans”
INDEX 01 08:24:37
TRACK 13 AUDIO
TITLE “Track13”
PERFORMER “clash of the titans”
INDEX 01 09:08:44
TRACK 14 AUDIO
TITLE “Track14”
PERFORMER “clash of the titans”
INDEX 01 10:15:54
TRACK 15 AUDIO
TITLE “Track15”
PERFORMER “clash of the titans”
INDEX 01 10:53:52
TRACK 16 AUDIO
TITLE “Track16”
PERFORMER “clash of the titans”
INDEX 01 11:25:30
TRACK 17 AUDIO
TITLE “Track17”
PERFORMER “clash of the titans”
INDEX 01 12:10:26
TRACK 18 AUDIO
TITLE “Track18”
PERFORMER “clash of the titans”
INDEX 01 13:32:25
TRACK 19 AUDIO
TITLE “Track19”
PERFORMER “clash of the titans”
INDEX 01 14:23:59
TRACK 20 AUDIO
TITLE “Track20”
PERFORMER “clash of the titans”
INDEX 01 14:54:12
TRACK 21 AUDIO
TITLE “Track21”
PERFORMER “clash of the titans”
INDEX 01 15:52:40
TRACK 22 AUDIO
TITLE “Track22”
PERFORMER “clash of the titans”
INDEX 01 17:03:55
TRACK 23 AUDIO
TITLE “Track23”
PERFORMER “clash of the titans”
INDEX 01 17:48:67
TRACK 24 AUDIO
TITLE “Track24”
PERFORMER “clash of the titans”
INDEX 01 18:42:39
TRACK 25 AUDIO
TITLE “Track25”
PERFORMER “clash of the titans”
INDEX 01 19:14:07
TRACK 26 AUDIO
TITLE “Track26”
PERFORMER “clash of the titans”
INDEX 01 21:15:48
TRACK 27 AUDIO
TITLE “Track27”
PERFORMER “clash of the titans”
INDEX 01 22:52:06
TRACK 28 AUDIO
TITLE “Track28”
PERFORMER “clash of the titans”
INDEX 01 24:15:03
TRACK 29 AUDIO
TITLE “Track29”
PERFORMER “clash of the titans”
INDEX 01 25:01:50
TRACK 30 AUDIO
TITLE “Track30”
PERFORMER “clash of the titans”
INDEX 01 26:15:54
TRACK 31 AUDIO
TITLE “Track31”
PERFORMER “clash of the titans”
INDEX 01 28:06:08
TRACK 32 AUDIO
TITLE “Track32”
PERFORMER “clash of the titans”
INDEX 01 29:47:46
TRACK 33 AUDIO
TITLE “Track33”
PERFORMER “clash of the titans”
INDEX 01 30:53:62
TRACK 34 AUDIO
TITLE “Track34”
PERFORMER “clash of the titans”
INDEX 01 33:00:09
TRACK 35 AUDIO
TITLE “Track35”
PERFORMER “clash of the titans”
INDEX 01 36:07:05
TRACK 36 AUDIO
TITLE “Track36”
PERFORMER “clash of the titans”
INDEX 01 37:37:08
TRACK 37 AUDIO
TITLE “Track37”
PERFORMER “clash of the titans”
INDEX 01 39:53:17
TRACK 38 AUDIO
TITLE “Track38”
PERFORMER “clash of the titans”
INDEX 01 42:07:50
TRACK 39 AUDIO
TITLE “Track39”
PERFORMER “clash of the titans”
INDEX 01 43:14:48
TRACK 40 AUDIO
TITLE “Track40”
PERFORMER “clash of the titans”
INDEX 01 44:06:33
TRACK 41 AUDIO
TITLE “Track41”
PERFORMER “clash of the titans”
INDEX 01 45:16:31
TRACK 42 AUDIO
TITLE “Track42”
PERFORMER “clash of the titans”
INDEX 01 45:59:60
TRACK 43 AUDIO
TITLE “Track43”
PERFORMER “clash of the titans”
INDEX 01 46:48:74
TRACK 44 AUDIO
TITLE “Track44”
PERFORMER “clash of the titans”
INDEX 01 48:05:43
TRACK 45 AUDIO
TITLE “Track45”
PERFORMER “clash of the titans”
INDEX 01 48:50:10
TRACK 46 AUDIO
TITLE “Track46”
PERFORMER “clash of the titans”
INDEX 01 49:20:73
TRACK 47 AUDIO
TITLE “Track47”
PERFORMER “clash of the titans”
INDEX 01 50:02:59
TRACK 48 AUDIO
TITLE “Track48”
PERFORMER “clash of the titans”
INDEX 01 50:47:63
TRACK 49 AUDIO
TITLE “Track49”
PERFORMER “clash of the titans”
INDEX 01 51:13:64
TRACK 50 AUDIO
TITLE “Track50”
PERFORMER “clash of the titans”
INDEX 01 51:43:20
TRACK 51 AUDIO
TITLE “Track51”
PERFORMER “clash of the titans”
INDEX 01 52:45:23
TRACK 52 AUDIO
TITLE “Track52”
PERFORMER “clash of the titans”
INDEX 01 54:17:05
TRACK 53 AUDIO
TITLE “Track53”
PERFORMER “clash of the titans”
INDEX 01 55:15:22
TRACK 54 AUDIO
TITLE “Track54”
PERFORMER “clash of the titans”
INDEX 01 56:06:66
TRACK 55 AUDIO
TITLE “Track55”
PERFORMER “clash of the titans”
INDEX 01 57:17:03
TRACK 56 AUDIO
TITLE “Track56”
PERFORMER “clash of the titans”
INDEX 01 58:28:28
TRACK 57 AUDIO
TITLE “Track57”
PERFORMER “clash of the titans”
INDEX 01 59:16:13
TRACK 58 AUDIO
TITLE “Track58”
PERFORMER “clash of the titans”
INDEX 01 60:28:49
TRACK 59 AUDIO
TITLE “Track59”
PERFORMER “clash of the titans”
INDEX 01 60:55:51
TRACK 60 AUDIO
TITLE “Track60”
PERFORMER “clash of the titans”
INDEX 01 61:49:27
TRACK 61 AUDIO
TITLE “Track61”
PERFORMER “clash of the titans”
INDEX 01 63:07:25
TRACK 62 AUDIO
TITLE “Track62”
PERFORMER “clash of the titans”
INDEX 01 63:41:45
TRACK 63 AUDIO
TITLE “Track63”
PERFORMER “clash of the titans”
INDEX 01 64:25:46
TRACK 64 AUDIO
TITLE “Track64”
PERFORMER “clash of the titans”
INDEX 01 65:38:35
TRACK 65 AUDIO
TITLE “Track65”
PERFORMER “clash of the titans”
INDEX 01 66:05:08
TRACK 66 AUDIO
TITLE “Track66”
PERFORMER “clash of the titans”
INDEX 01 66:51:68
TRACK 67 AUDIO
TITLE “Track67”
PERFORMER “clash of the titans”
INDEX 01 67:49:20
TRACK 68 AUDIO
TITLE “Track68”
PERFORMER “clash of the titans”
INDEX 01 68:24:22
TRACK 69 AUDIO
TITLE “Track69”
PERFORMER “clash of the titans”
INDEX 01 71:09:17
TRACK 70 AUDIO
TITLE “Track70”
PERFORMER “clash of the titans”
INDEX 01 74:24:05

is it possible in nero, though, I don’t have feurio

I downloaded ferurio and I loaded the cue file, it looks like it loaded the tracks, I have not tested a burn yet. I want to make sure it doesn’t put any pause between each track, HOW DO I DO THIS?

thanks very much

one love

sorry one last questin, feuro doesn’t give me the option to choose AUDIO ( I want to be able to play these in my car CD), does it automatically burn them as AUDIO. How does this work?

Originally posted by cutta
I want to make sure it doesn’t put any pause between each track, HOW DO I DO THIS?

You don’t have to worry about that with cuesheets. The pauses are defined by the cuesheets, I think.

Use the “Play” button to exactly hear how the tracks and pauses will be burned.

Anyway, press the “Settings” button under the projects list.
You’ll use “Do not insert pauses between tracks” for most cases.
Those settings will be remembered, unlike Nero.

feuro doesn’t give me the option to choose AUDIO

That’s right, because Feurio! only burns audio discs.
You don’t have to remember to select “Disc At Once” anymore, because Feurio only burns audio discs in DAO mode, of course.

will do one more burn, and get you the burn message, something about not having access to some *.dll file

Exception Code: c0000005 -> ACCESS VIOLATION
Adress: 78001a66. Modul: MSVCRT.dll (C:\WINNT\system32\MSVCRT.dll)

strange…
is your burner supported? which one?

I would try rebooting the system 1st, and then simulating.

Is there any strange thing at the failure position? Can you play/edit the compilation?
Has Feurio decoded the MP3 to WAV 1st? (It’s not necessary).

I’ll make tests with that cue later…

PS: Are you using Win2000 and doing thing in Feurio CD-Writer while burning?
http://club.cdfreaks.com/showthread.php?s=&threadid=85623

decode on the fly or
decode data while burning

which option do I choose?

I have no idea if it’s converting it wav or not, how do I tell.

it should be the same regarding quality.

Decoding while burning (“on the fly”) needs more resources while burning, but it’s faster and nice. The tracks are decoded while burned.
This is what Nero does.

Decoding to WAV before burning is safer against buffer underruns. It doesn’t need as much CPU power, and is safer against errors in MP3 track.

well if I choose decode data while burning, I get this error message:

ERROR: wen dcompressing the files; internal error:EOF reaced! The end of file was reached to early while reading.

I will try the other option the first one: decode on the fly;

any idea why i got the error on the second option?

I have a hp cd writer 9100 series cd-r burner

I checked out the disc it burn list half of the tracks, I can play half of them.

Originally posted by cutta

ERROR: wen dcompressing the files; internal error:EOF reaced!

End Of File reached.

It seems that the MP3 track is damaged.
Strange because Feurio can detect that kind of errors usually and warn.

Anyway, you only have to decode the MP3 to WAV with any program like Feurio, dbPowerAmp, Winamp, etc.
Check if the WAV file is OK.
Then change the 3rd line of CUE:
FILE “01-black_kat_vs_killamanjaro-black_kat_part-rks.mp3” MP3

to

FILE “decoded_wav.wav” WAV

and load this modified CUE with any program that can read CUE files.

You only have to mke sure that the WAV or MP3 is OK.

The CUE file seems correct, so the error is in the MP3 file.

I can play half of them.

It seems that the file is damaged.

thanks for all the info, I will try the conversion to .wav

one love,

cutta

You all wrong lol.

I had this problem, All you have to do is change this

“FILE “01-black_kat_vs_killamanjaro-black_kat_part-rks.mp3” MP3”

to this

“FILE “01-black_kat_vs_killamanjaro-black_kat_part-rks.MP3” MP3”

You have to change the mp3 to MP3 for some reason, And then it works fine.

Peace

yes, you’re right Vector. I forgot that.
It’s another stupid bug in Nero since versions 5.5 and still hasn’t been fixed… very sad.

i did this, but my drive isnt supported.
i have no money to buy a new one, so what do i do? i used a generic driver, and went through all the steps, but it gave me an error at 97%.
out of 18 tracks, 10 worked fine. the 11’th wasnt. i looked at the mp3 before spliting and it was fine as well. even uppercased MP3.

thank you for any help.

please help, i’ve tried changing “mp3” to “MP3” and it’s still not helping…i’m using Nero and would like to stick to it as oppose to using Ferurio…

also, if anyone can have a site for proper way of setting up a cue file, so i know when i look at one, i know what needs to be edited in order to burn…

please take a look at my cue file…thanks

PERFORMER "VA"
TITLE "Set If Off (Black Label Limited Edition)"
FILE “01-va-set_if_off_(black_label_limited_edition)-bootleg-2007-urb.MP3” MP3
TRACK 01 AUDIO
TITLE "24/36"
PERFORMER "Jin – 36"
ISRC 000000000000
FLAGS DCP
INDEX 01 00:00:00
TRACK 02 AUDIO
TITLE "Fatman Scoop ft. Jeannie Ortega – Crowded (Remix)"
PERFORMER "Fatman Scoop ft. Jeannie Ortega – Crowded (Remix)"
ISRC 000000000000
FLAGS DCP
INDEX 00 03:41:63
INDEX 01 03:43:63
TRACK 03 AUDIO
TITLE "Justin Timberlake ft. One-2 – Summer Love (Remix)"
PERFORMER "Justin Timberlake ft. One-2 – Summer Love (Remix)"
ISRC 000000000000
FLAGS DCP
INDEX 00 06:49:73
INDEX 01 06:51:72
TRACK 04 AUDIO
TITLE "P Diddy ft. Young Joc, T.I. & Nicole Schezinger – Come To Me (ATL Remix)"
PERFORMER "P Diddy ft. Young Joc, T.I. & Nicole Schezinger – Come To Me (ATL Remix)"
ISRC 000000000000
FLAGS DCP
INDEX 00 11:02:16
INDEX 01 11:04:16
TRACK 05 AUDIO
TITLE "Styles P ft. Jagged Edge – Kick It Like That"
PERFORMER "Styles P ft. Jagged Edge – Kick It Like That"
ISRC 000000000000
FLAGS DCP
INDEX 00 14:06:64
INDEX 01 14:08:62
TRACK 06 AUDIO
TITLE "Mya ft. Lil’ Wayne – Lock You Down "
PERFORMER "Mya ft. Lil’ Wayne – Lock You Down "
ISRC 000000000000
FLAGS DCP
INDEX 00 17:47:53
INDEX 01 17:49:52
TRACK 07 AUDIO
TITLE "Ciara ft. 50 Cent – Can’t Leave You"
PERFORMER "Ciara ft. 50 Cent – Can’t Leave You"
ISRC 000000000000
FLAGS DCP
INDEX 00 21:22:54
INDEX 01 21:24:53
TRACK 08 AUDIO
TITLE "Deepside ft. Papoose – Let’s Make Love (Remix)"
PERFORMER "Deepside ft. Papoose – Let’s Make Love (Remix)"
ISRC 000000000000
FLAGS DCP
INDEX 00 24:50:00
INDEX 01 24:51:72
TRACK 09 AUDIO
TITLE "Teairra Mari ft. Shawnna – M.O.N.E.Y."
PERFORMER "Teairra Mari ft. Shawnna – M.O.N.E.Y."
ISRC 000000000000
FLAGS DCP
INDEX 00 28:12:53
INDEX 01 28:14:53
TRACK 10 AUDIO
TITLE "Too $hort ft. Daz & Kurupt – Sadity"
PERFORMER "Too $hort ft. Daz & Kurupt – Sadity"
ISRC 000000000000
FLAGS DCP
INDEX 00 31:35:08
INDEX 01 31:37:08
TRACK 11 AUDIO
TITLE "Rhymefest – Stick"
PERFORMER "Rhymefest – Stick"
ISRC 000000000000
FLAGS DCP
INDEX 00 35:11:18
INDEX 01 35:13:17
TRACK 12 AUDIO
TITLE "Akon ft. Snoop Dogg – I Wanna Fuck You"
PERFORMER "Akon ft. Snoop Dogg – I Wanna Fuck You"
ISRC 000000000000
FLAGS DCP
INDEX 00 37:04:22
INDEX 01 37:06:21
TRACK 13 AUDIO
TITLE "T.I ft. Ciara – King & Queen"
PERFORMER "T.I ft. Ciara – King & Queen"
ISRC 000000000000
FLAGS DCP
INDEX 00 39:10:55
INDEX 01 39:12:55
TRACK 14 AUDIO
TITLE "E-40 – Dumb Hyphy"
PERFORMER "E-40 – Dumb Hyphy"
ISRC 000000000000
FLAGS DCP
INDEX 00 42:30:59
INDEX 01 42:32:59
TRACK 15 AUDIO
TITLE "Cherish – That Boy"
PERFORMER "Cherish – That Boy"
ISRC 000000000000
FLAGS DCP
INDEX 00 45:19:20
INDEX 01 45:21:20
TRACK 16 AUDIO
TITLE "Fatman Scoop ft. LIQ – Sex U Up"
PERFORMER "Fatman Scoop ft. LIQ – Sex U Up"
ISRC 000000000000
FLAGS DCP
INDEX 00 48:08:44
INDEX 01 48:10:44
TRACK 17 AUDIO
TITLE "Ryan Leslie – Elektro"
PERFORMER "Ryan Leslie – Elektro"
ISRC 000000000000
FLAGS DCP
INDEX 00 51:40:26
INDEX 01 51:42:26
TRACK 18 AUDIO
TITLE "Chris Brown – Nuthin’ But Love 4 U"
PERFORMER "Chris Brown – Nuthin’ But Love 4 U"
ISRC 000000000000
FLAGS DCP
INDEX 00 54:57:74
INDEX 01 54:59:74
TRACK 19 AUDIO
TITLE "Ying Yang Twins – Jack It Up"
PERFORMER "Ying Yang Twins – Jack It Up"
ISRC 000000000000
FLAGS DCP
INDEX 00 57:30:65
INDEX 01 57:32:65
TRACK 20 AUDIO
TITLE "Too Short – Yummy (Remix)"
PERFORMER "Too Short – Yummy (Remix)"
ISRC 000000000000
FLAGS DCP
INDEX 00 61:13:39
INDEX 01 61:15:37
TRACK 21 AUDIO
TITLE "Mario Vasquez ft. Fabolous – Cohiba (Remix)"
PERFORMER "Mario Vasquez ft. Fabolous – Cohiba (Remix)"
ISRC 000000000000
FLAGS DCP
INDEX 00 63:11:12
INDEX 01 63:13:12
TRACK 22 AUDIO
TITLE "Earl Ray – Dance Like U Fuck"
PERFORMER "Earl Ray – Dance Like U Fuck"
ISRC 000000000000
FLAGS DCP
INDEX 00 65:52:36
INDEX 01 65:54:36
TRACK 23 AUDIO
TITLE "Frankie J ft. Slim – Top Of The Line"
PERFORMER "Frankie J ft. Slim – Top Of The Line"
ISRC 000000000000
FLAGS DCP
INDEX 00 68:42:61
INDEX 01 68:44:61
TRACK 24 AUDIO
TITLE "Fatman Scoop ft. Ying Yang Twins – Set It Off"
PERFORMER "Fatman Scoop ft. Ying Yang Twins – Set It Off"
ISRC 000000000000
FLAGS DCP
INDEX 00 70:19:44
INDEX 01 70:21:44
TRACK 25 AUDIO
TITLE "Snoop Dogg – Which One Of You"
PERFORMER "Snoop Dogg – Which One Of You"
ISRC 000000000000
FLAGS DCP
INDEX 00 73:44:49
INDEX 01 73:46:49
TRACK 26 AUDIO
TITLE "Pitbull – Ay Chico"
PERFORMER "Pitbull – Ay Chico"
ISRC 000000000000
FLAGS DCP
INDEX 00 75:30:12
INDEX 01 75:32:12