Baja Beach Club 7 cue file

vbimport

#1

heeft iemand die?

mvg NIlis


#2

Als iemand de cue file heeft, kan die hem dan ook naar mij mailen / pm-men / een link geven.

marshallakaeminem@hotmail.com

alvast bedankt… :D:D


#3

FILE “01-Baja_Beach_Club-7-RNS.mp3” BINARY
TRACK 01 AUDIO
INDEX 01 00:00:00
TRACK 02 AUDIO
INDEX 00 04:10:05
INDEX 01 04:12:05
TRACK 03 AUDIO
INDEX 00 07:20:02
INDEX 01 07:22:02
TRACK 04 AUDIO
INDEX 00 11:28:10
INDEX 01 11:30:10
TRACK 05 AUDIO
INDEX 00 15:21:55
INDEX 01 15:23:55
TRACK 06 AUDIO
INDEX 00 18:18:65
INDEX 01 18:20:65
TRACK 07 AUDIO
INDEX 00 21:21:10
INDEX 01 21:23:10
TRACK 08 AUDIO
INDEX 00 23:49:27
INDEX 01 23:51:27
TRACK 09 AUDIO
INDEX 00 28:18:10
INDEX 01 28:20:10
TRACK 10 AUDIO
INDEX 00 31:16:37
INDEX 01 31:18:37
TRACK 11 AUDIO
INDEX 00 35:15:07
INDEX 01 35:17:07
TRACK 12 AUDIO
INDEX 00 38:36:22
INDEX 01 38:38:22
TRACK 13 AUDIO
INDEX 00 42:17:62
INDEX 01 42:19:62
TRACK 14 AUDIO
INDEX 00 45:09:50
INDEX 01 45:11:50
TRACK 15 AUDIO
INDEX 00 48:20:30
INDEX 01 48:22:30
TRACK 16 AUDIO
INDEX 00 52:04:37
INDEX 01 52:06:37


#4

http://www.trancerules.com


#5

en hoe kan ik de twee seconden ertussen weghalen? of zitten die er niet tussen. En bedankt voor de link carlo, maar hij staat er niet meer op. Maar ik piel wel effe verder…


#6

De cue file die hierboven staat werkt niet, Krijg een foutmelding in regel elf klopt iets niet.

Maar ik heb de cd in mp3’s geknipt met musiccutter die op de site staat die carlo noemde…

En brandt ze nu effe op een cd… allen bedankt


#7

Cue werkt wel, alleen op het einde kan ie iets niet vinden , maar werk gewoon


#8

Alleen zou ik aan die cue wel iets veranderen namelijk als je de MP3 file al kan afspelen in winamp dan is de type file geen BINAIR file maar een MP3 file.

Nu kan je over het algemeen wel de CD branden zo maar je hebt in feite wel een kleine fout gemaakt en het gaat er denk ik om dat je hem het beste brand. De meest voorkomende fout die je krijgt als je hem dus brand met indeling “binairy” is dat je bijvoorbeeld een nummer te kort hebt(als de laatste nummer van de cd niet lang duurt).

In iedergeval ik zou dus dit zo veranderen:
FILE “01-Baja_Beach_Club-7-RNS.mp3” BINARY
in
FILE “01-Baja_Beach_Club-7-RNS.mp3” MP3