Ape cue problem

vbimport

#1

I hope somebody can help me here. I have four Cd’s given to me in ape cue format (I don’t have the originals with me, because the owner is far away), and I can’t open the first one with cue-splitter which is the software I usually prefer. I’ve checked and everything seems normal viewing it with Notepad. I list Cd 1 and I include also No.2 so you can see that they are exactly the same, except that it is of course No2.

I can split the tracks of the remaining CD s with cue-splitter, so maybe it is a defective file. I can play the entire ape track with Winamp, so it is fine.

Sorry for my English.

PERFORMER “Unknown Artist”
TITLE “Unknown Title”
FILE “CD 1.wav” WAVE
TRACK 01 AUDIO
TITLE “Track01”
PERFORMER “Unknown Artist”
INDEX 00 00:00:00
INDEX 01 00:00:32
TRACK 02 AUDIO
TITLE “Track02”
PERFORMER “Unknown Artist”
INDEX 00 09:16:23
INDEX 01 09:16:25
TRACK 03 AUDIO
TITLE “Track03”
PERFORMER “Unknown Artist”
INDEX 00 12:40:68
INDEX 01 12:40:70
TRACK 04 AUDIO
TITLE “Track04”
PERFORMER “Unknown Artist”
INDEX 00 21:30:38
INDEX 01 21:30:40
TRACK 05 AUDIO
TITLE “Track05”
PERFORMER “Unknown Artist”
INDEX 00 23:34:05
INDEX 01 23:34:07
TRACK 06 AUDIO
TITLE “Track06”
PERFORMER “Unknown Artist”
INDEX 00 37:50:30
INDEX 01 37:50:32
TRACK 07 AUDIO
TITLE “Track07”
PERFORMER “Unknown Artist”
INDEX 00 42:30:25
INDEX 01 42:30:27
TRACK 08 AUDIO
TITLE “Track08”
PERFORMER “Unknown Artist”
INDEX 00 44:43:23
INDEX 01 44:43:25
TRACK 09 AUDIO
TITLE “Track09”
PERFORMER “Unknown Artist”
INDEX 00 52:06:15
INDEX 01 52:06:17
TRACK 10 AUDIO
TITLE “Track10”
PERFORMER “Unknown Artist”
INDEX 00 57:14:26
INDEX 01 57:14:27
TRACK 11 AUDIO
TITLE “Track11”
PERFORMER “Unknown Artist”
INDEX 00 60:44:70
INDEX 01 60:44:72
TRACK 12 AUDIO
TITLE “Track12”
PERFORMER “Unknown Artist”
INDEX 00 65:35:40
INDEX 01 65:35:42
TRACK 13 AUDIO
TITLE “Track13”
PERFORMER “Unknown Artist”
INDEX 00 68:19:23
INDEX 01 68:19:25

PERFORMER “Unknown Artist”
TITLE “Unknown Title”
FILE “CD 2.wav” WAVE
TRACK 01 AUDIO
TITLE “Track01”
PERFORMER “Unknown Artist”
INDEX 00 00:00:00
INDEX 01 00:00:32
TRACK 02 AUDIO
TITLE “Track02”
PERFORMER “Unknown Artist”
INDEX 01 05:34:47
TRACK 03 AUDIO
TITLE “Track03”
PERFORMER “Unknown Artist”
INDEX 00 13:02:73
INDEX 01 13:08:72
TRACK 04 AUDIO
TITLE “Track04”
PERFORMER “Unknown Artist”
INDEX 01 17:05:42
TRACK 05 AUDIO
TITLE “Track05”
PERFORMER “Unknown Artist”
INDEX 01 23:48:60
TRACK 06 AUDIO
TITLE “Track06”
PERFORMER “Unknown Artist”
INDEX 01 29:51:15
TRACK 07 AUDIO
TITLE “Track07”
PERFORMER “Unknown Artist”
INDEX 01 38:05:20
TRACK 08 AUDIO
TITLE “Track08”
PERFORMER “Unknown Artist”
INDEX 01 40:10:72
TRACK 09 AUDIO
TITLE “Track09”
PERFORMER “Unknown Artist”
INDEX 01 45:42:62
TRACK 10 AUDIO
TITLE “Track10”
PERFORMER “Unknown Artist”
INDEX 01 49:04:67
TRACK 11 AUDIO
TITLE “Track11”
PERFORMER “Unknown Artist”
INDEX 01 62:46:72
TRACK 12 AUDIO
TITLE “Track12”
PERFORMER “Unknown Artist”
INDEX 01 69:16:02