An error occured while trying to load cue sheet file (file extention) (line 7)

I posted another thread about converting a wav cue to a flac cue, but I found a folder that has a flac cue included and I get the following error:

An error occured while trying to load cue sheet file
(file extention)
(line 7)

REM GENRE Rock
REM DATE 1973
REM DISCID 710A130A
REM COMMENT “ExactAudioCopy v0.95b2”
PERFORMER “Pink Floyd”
TITLE “Dark Side Of The Moon (Mobile Fidelity UltraDisc)”
FILE “01 Speak To Me.flac” FLAC
TRACK 01 AUDIO
TITLE “Speak To Me”
PERFORMER “Pink Floyd”
INDEX 01 00:00:00
FILE “02 Breathe.flac” FLAC
TRACK 02 AUDIO
TITLE “Breathe”
PERFORMER “Pink Floyd”
INDEX 01 00:00:00

etc etc etc etc

The funny thing is the file extention is exactly the same, which is refered to in line 7. Not sure what the problem is.

Any suggestions for a noob would be great, thx guys.

Don’t know if this is relevant, but the cue files I have are considerably different.

PERFORMER "Paul Van Dyk"
TITLE "In Between"
FILE “01-paul_van_dyk_-_in_between.mp3” MP3
TRACK 01 AUDIO
TITLE "Haunted"
INDEX 01 00:00:00
TRACK 02 AUDIO
TITLE "White Lies (feat. Jessica Sutta)"
INDEX 01 05:40:64
TRACK 03 AUDIO
TITLE "Sabotage"
INDEX 01 10:17:62
TRACK 04 AUDIO
TITLE "Complicated (feat. Ashley Tomberlin)"
INDEX 01 13:58:70…

There one [B]large[/B] seamless mp3. Opening the cue file to burn a CD results in a still seamless mix audio CD, but with individual tracks.

This little app will take the cue file and create separate mp3’s of each song.

http://www.medieval.it/content/view/28/70/

[I]equipped with a small “CUE” text file that contain informations about tracks title, artist and length. Usually these couple of files are generated by programs like EAC (Exact Audio Copy), CDRWin, BPM Studio, GoldWave or similar. [/I]