111D@111L can't burn in EAC

I tried to burn a test CD in Exact Audio Copy to determine the correct write offset for my Pio and found it wouldn’t burn for more than a few seconds. I tried several different brands of CD-R including TY, but no joy. My other burners work in EAC with no problem. Is this likely a burner or EAC problem?

The Pio burns CDs easily in both Nero and Burrrn. In fact, it’s my best CD burner.

Read offset is at +48. I’m using the latest EAC.

I just tried my Pioneer 111L twice as well. No Go! I was suprised. I had a warning pop up that said Write Error, Write Block, Logical unit not ready.
This was after about 30 seconds of burning. I have the write offset set at +18 but if nothing burns it doesn’t matter. I wonder if this has anything to do with the crossflashing? Or is it an EAC thing?
Budzos

Thanks for letting me know. At least I’m happy it’s evidently not a problem with my setup.

If you’re using the ASPI interface try using the SPTI interface instead. If you’re using the SPTI interface try using the ASPI interface instead.

EAC => EAC Options… => Interface

Thanks for the suggestion, DrageMester. I’ve been using the external ASPI interface, but tried the “native Win32 interface for Win NT/2000/XP” (is that the SPTI interface?). I don’t have the ASPI interface from VOB software installed, so that’s grayed out.

Unfortunately, I still can’t get my Pio to burn longer than it takes to turn the CD-R into a coaster. EAC doesn’t have any problems with my BenQ and Lite-On. :confused:

I dont think it’s relevant when you’re burning a test disc (as opposed to burning CUE sheets) but you could try it anyway:

If you’re using CDRDAO to burn try turning that option off. If you’re not using CDRDAO try turning that option on.

EAC => EAC Options… => Write

“Use CDRDAO for writing in the EAC layout editor” is grayed out. It looks as if I’m going to have to stick with Nero and Burrrn for CDs. Maybe there’s something about the 111 that EAC isn’t compatible with.

I don’t think so. Using EAC to Create Offset Test CD or to burn a CUE sheet works perfectly here on my Pio 111D@111L 8.29 in an external enclosure (PL3507 over USB) and with EAC 0.95b3 without CDRDAO using an external ASPI (Nero) interface.

Came up with this old thread in google while doing my research on the very same problem (unable to burn in EAC with Pioneer DVR-111L, it stops with error “Write error! Write blocks:Logical unit not ready, long write in progress”).
Just to add some info if anybody’s looking for solutions. Here is what i found at EAC support forum

From: JuanK, Registered User, Senior Member
The Pioneer DVR-108 isn’t compatible for burning with EAC. I guess the LG GSA-4160B and the LG CED-8120B aren’t compatible either. For example, my Pioneer DVR-106 can’t burn with EAC.

Although he speaks of 108 model, i guess that applies to 111L as well.

My 112D wasn’t able to write, either. I think I used the “native” burning capabilities of EAC. There might have been one time I tried CDRDAO and it worked, but I am not too sure of that.

I ended up having to make the image with EAC and burn with ImgBurn [using the .cue file].

There is an EAC commandline switch you can use (I don’t remember it, but it contained the word “Sony”) that will allow you to burn with offset correction with the Pioneer. However, I sometimes ran into trouble at the lead-out of the burn when using this method. I’ll try to Google it… it’s been a while.

Meh, couldn’t find it. I guess you could always use a small tool like Steve Morphet’s WAVTools to shift your audio data 18 samples and get an AccurateRip-friendly burn from your Pio.

Gwen Stefani WAV+CUE burned with ImgBurn on my 115L:

Exact Audio Copy V0.99 prebeta 4 from 23. January 2008

EAC extraction logfile from 14. June 2008, 22:12

Gwen Stefani / Love. Angel. Music. Baby.

Used drive  : LITE-ON LTR-52327S   Adapter: 6  ID: 0

Read mode               : Secure
Utilize accurate stream : Yes
Defeat audio cache      : Yes
Make use of C2 pointers : Yes

Read offset correction                      : 6
Overread into Lead-In and Lead-Out          : No
Fill up missing offset samples with silence : Yes
Delete leading and trailing silent blocks   : No
Null samples used in CRC calculations       : No
Used interface                              : Native Win32 interface for Win NT & 2000

Used output format : Internal WAV Routines
Sample format      : 44.100 Hz; 16 Bit; Stereo


TOC of the extracted CD

     Track |   Start  |  Length  | Start sector | End sector 
    ---------------------------------------------------------
        1  |  0:00.00 |  3:41.46 |         0    |    16620   
        2  |  3:41.46 |  3:56.70 |     16621    |    34390   
        3  |  7:38.41 |  3:19.68 |     34391    |    49383   
        4  | 10:58.34 |  3:09.21 |     49384    |    63579   
        5  | 14:07.55 |  3:42.27 |     63580    |    80256   
        6  | 17:50.07 |  4:24.69 |     80257    |   100125   
        7  | 22:15.01 |  4:51.42 |    100126    |   121992   
        8  | 27:06.43 |  4:06.48 |    121993    |   140490   
        9  | 31:13.16 |  4:11.72 |    140491    |   159387   
       10  | 35:25.13 |  4:48.16 |    159388    |   181003   
       11  | 40:13.29 |  3:37.45 |    181004    |   197323   
       12  | 43:50.74 |  4:34.04 |    197324    |   217877   


Range status and errors

Selected range

     Filename H:\Gwen Stefani - Love. Angel. Music. Baby..wav

     Peak level 99.9 %
     Range quality 100.0 %
     Copy CRC 19F2D575
     Copy OK

No errors occurred

 
AccurateRip summary
 
Track  1  accurately ripped (confidence 60)  [24E14484]
Track  2  accurately ripped (confidence 62)  [78B2F619]
Track  3  accurately ripped (confidence 64)  [1EA0F9ED]
Track  4  accurately ripped (confidence 65)  [61B9BBF5]
Track  5  accurately ripped (confidence 63)  [A89591B7]
Track  6  accurately ripped (confidence 65)  [3D6D8A45]
Track  7  accurately ripped (confidence 62)  [B8D0A467]
Track  8  accurately ripped (confidence 63)  [57D51270]
Track  9  accurately ripped (confidence 63)  [B33A2B88]
Track 10  accurately ripped (confidence 63)  [5B74C4F8]
Track 11  accurately ripped (confidence 61)  [9E8022B9]
Track 12  accurately ripped (confidence 59)  [75C3E7EB]
 
All tracks accurately ripped

End of status report

And now I realize the OP has probably had kids and put them through college since his post… oh well. Sorry for hijacking this thread, RusI.

I think that this is a problem for Pioneer drives and EAC. Both drives that I own (112 and 115) can’t burn with EAC native drivers. IF you use CDRDAO, they will burn but only one session (meaning that you can’t leave the CD open).

[QUOTE=juancdg;2078404]I think that this is a problem for Pioneer drives and EAC. Both drives that I own (112 and 115) can’t burn with EAC native drivers. IF you use CDRDAO, they will burn but only one session (meaning that you can’t leave the CD open).[/QUOTE]
Thank you for the confirmation. :flower:

It’s nice to know for sure, and to have this thread as a reference. :iagree: