Old 28-03-2009   #1
New on Forum
 
Join Date: Feb 2006
Posts: 5
DVDFab 5.3.0.6 : MP4 [ h264 aac 5.1 Multichannel ] + PS3

Hello all,
I tries this new option (aac 5.1) in the last beta of DVDFab.
My goal is to feed my PS3 with MediaTomb / PS3 Media Server
Multi-language or subtitle are now a issue in my setup.

I'am between 2 configuration .... and this new option should (maybe) solve all my problem.

h264 + ac3 in avi ... doesn't work on ps3
h264 + ac3 in mkv ... less portable and require more hardware and specific software.
h264 + aac in mp4 ... poor sound in home theater.

But now .....
h264 + aac 5.1 in mp4 .... wow ... I want that

My problem is Iam always got a blank screen !?!
Bitrate of the sound track should be 128 and It's look 192 in MediaInfo.
Thanks for your help.

Code:
General
Complete name                    : D:\DVD\Bienvenue.chez.les.Robinsons_h264.{2000}.aac5.1.mp4
Format                           : MPEG-4
Format profile                   : Base Media
Codec ID                         : isom
File size                        : 1.45 GiB
Duration                         : 1h 34mn
Overall bit rate                 : 2 197 Kbps

Video
ID                               : 1
Format                           : AVC
Format/Info                      : Advanced Video Codec
Format profile                   : Baseline@L1.3
Format settings, CABAC           : No
Format settings, ReFrames        : 1 frame
Codec ID                         : avc1
Codec ID/Info                    : Advanced Video Coding
Duration                         : 1h 34mn
Bit rate mode                    : Variable
Bit rate                         : 2 000 Kbps
Width                            : 624 pixels
Height                           : 352 pixels
Display aspect ratio             : 16/9
Frame rate mode                  : Constant
Frame rate                       : 23.976 fps
Resolution                       : 24 bits
Colorimetry                      : 4:2:0
Scan type                        : Progressive
Bits/(Pixel*Frame)               : 0.380
Stream size                      : 1.32 GiB (91%)

Audio
ID                               : 2
Format                           : AAC
Format/Info                      : Advanced Audio Codec
Format version                   : Version 4
Format profile                   : LC
Format settings, SBR             : No
Codec ID                         : 40
Duration                         : 1h 34mn
Bit rate mode                    : Variable
Bit rate                         : 192 Kbps
Channel(s)                       : 6 channels
Channel positions                : Front: L C R, Rear: L R, LFE
Sampling rate                    : 48.0 KHz
Resolution                       : 16 bits
Stream size                      : 130 MiB (9%)
vonloschz is offline   Reply With Quote
Old 28-03-2009   #2
New on Forum
 
Join Date: Feb 2006
Posts: 5
Re: DVDFab 5.3.0.6 : MP4 [ h264 aac 5.1 Multichannel ] + PS3

Another question ... in DVD to Mobile profile.
Should I take the Generic or PS3 profile if I chose in bolt h264 + aac 5.1 in mp4
vonloschz is offline   Reply With Quote
Old 29-03-2009   #3
New on Forum
 
Join Date: Feb 2006
Posts: 5
Re: DVDFab 5.3.0.6 : MP4 [ h264 aac 5.1 Multichannel ] + PS3

reply to myself ... take ps3 profile if you deal with a ps3.

Format profile : Baseline@L1.3 ... generic
Format profile : Baseline@L3.0 ... ps3

And picture is correct now.
vonloschz is offline   Reply With Quote
Old 29-03-2009   #4
Nightwatchman
 
signals's Avatar
 
Join Date: Sep 2006
Posts: 6,030
Re: DVDFab 5.3.0.6 : MP4 [ h264 aac 5.1 Multichannel ] + PS3

Hi vonloschz!
Sorry to leave you talking to yourself all day. Glad you worked out getting the video back. Was the only change you made the change of profile from Generic to PS3?
signals is offline   Reply With Quote
Old 29-03-2009   #5
New on Forum
 
Join Date: Feb 2006
Posts: 5
Re: DVDFab 5.3.0.6 : MP4 [ h264 aac 5.1 Multichannel ] + PS3

The only change I made is to take the ps3 profile instead the generic one.
And I downgrade the bitrates from 2000 to 1500.

On left is the generic and on right is the ps3.
Code:
File size                        : 1.45 GiB                   | File size                        : 1.12 GiB
Overall bit rate                 : 2 197 Kbps                 | Overall bit rate                 : 1 697 Kbps
Format profile                   : Baseline@L1.3              | Format profile                   : Baseline@L3.0
Bit rate                         : 2 000 Kbps                 | Bit rate                         : 1 500 Kbps
Bits/(Pixel*Frame)               : 0.380                      | Bits/(Pixel*Frame)               : 0.285
Stream size                      : 1.32 GiB (91%)             | Stream size                      : 1 014 MiB (88%)
Stream size                      : 130 MiB (9%)               \ Stream size                      : 130 MiB (11%)
What are the difference between Baseline@L1.3 and Baseline@L3.0 ?
It's the max bitrate a format can support ?

For a good multichannel, should I take Dolby Pro Logic II or stereo ?
I guess Dolby Pro Logic II, but a external opinion is welcome.

Thanks
vonloschz is offline   Reply With Quote
Old 29-03-2009   #6
Nightwatchman
 
signals's Avatar
 
Join Date: Sep 2006
Posts: 6,030
Re: DVDFab 5.3.0.6 : MP4 [ h264 aac 5.1 Multichannel ] + PS3

When making choices for audio, make sure your playback device supports the options you are considering. As to the encoding levels, I think it is more what the PS3 will support. There are many differences between the levels, including the max bitrate. There is an excellent chart here (scroll down, second chart): http://en.wikipedia.org/wiki/H.264 .
signals is offline   Reply With Quote
Reply


Thread Tools

Posting Rules
You may not post new threads
You may not post replies
You may not post attachments
You may not edit your posts

BB code is On
Smilies are On
[IMG] code is On
HTML code is Off
Trackbacks are Off
Pingbacks are Off
Refbacks are Off


Similar Threads
Thread Thread Starter Forum Replies Last Post
DVDFab PS3 generic.mp4.h264.aac? No video on PS3 jaarons DVDFab / DVD Region+CSS Free 1 03-01-2009 19:08
Please Help: DVD Fab Settings for: MP4.H264.AAC or AVI.H264.AC3 Lupismaximus DVDFab / DVD Region+CSS Free 3 31-12-2008 20:13
Question: DVDFab MP4 H264+Multichannel AAC vngarla DVDFab / DVD Region+CSS Free 11 18-10-2008 13:13
dvdfab mobile ripped h.264 aac mp4 incorrect bitrate coolala DVDFab / DVD Region+CSS Free 2 25-06-2008 07:30
Guide to create H264 + AC3 for the PS3 with DVDFab 5.0.2.0 Complication DVDFab / DVD Region+CSS Free 3 25-05-2008 01:59


All times are GMT +2. The time now is 23:21.
Top